  0
SECTION
  2
HEADER
  9
$ACADVER
  1
AC1015
  9
$ACADMAINTVER
 70
     6
  9
$DWGCODEPAGE
  3
ANSI_1252
  9
$INSBASE
 10
0.0
 20
0.0
 30
0.0
  9
$EXTMIN
 10
804.5698245923899
 20
-606.089631968033
 30
0.0
  9
$EXTMAX
 10
1014.56982459239
 20
-309.0896319680329
 30
0.0
  9
$LIMMIN
 10
0.0
 20
0.0
  9
$LIMMAX
 10
12.0
 20
9.0
  9
$ORTHOMODE
 70
     0
  9
$REGENMODE
 70
     1
  9
$FILLMODE
 70
     1
  9
$QTEXTMODE
 70
     0
  9
$MIRRTEXT
 70
     1
  9
$LTSCALE
 40
1.0
  9
$ATTMODE
 70
     1
  9
$TEXTSIZE
 40
0.2
  9
$TRACEWID
 40
0.05
  9
$TEXTSTYLE
  7
Standard
  9
$CLAYER
  8
0
  9
$CELTYPE
  6
ByLayer
  9
$CECOLOR
 62
   256
  9
$CELTSCALE
 40
1.0
  9
$DISPSILH
 70
     0
  9
$DIMSCALE
 40
1.0
  9
$DIMASZ
 40
0.18
  9
$DIMEXO
 40
0.0625
  9
$DIMDLI
 40
0.38
  9
$DIMRND
 40
0.0
  9
$DIMDLE
 40
0.0
  9
$DIMEXE
 40
0.18
  9
$DIMTP
 40
0.0
  9
$DIMTM
 40
0.0
  9
$DIMTXT
 40
0.18
  9
$DIMCEN
 40
0.09
  9
$DIMTSZ
 40
0.0
  9
$DIMTOL
 70
     0
  9
$DIMLIM
 70
     0
  9
$DIMTIH
 70
     1
  9
$DIMTOH
 70
     1
  9
$DIMSE1
 70
     0
  9
$DIMSE2
 70
     0
  9
$DIMTAD
 70
     0
  9
$DIMZIN
 70
     0
  9
$DIMBLK
  1

  9
$DIMASO
 70
     1
  9
$DIMSHO
 70
     1
  9
$DIMPOST
  1

  9
$DIMAPOST
  1

  9
$DIMALT
 70
     0
  9
$DIMALTD
 70
     2
  9
$DIMALTF
 40
25.4
  9
$DIMLFAC
 40
1.0
  9
$DIMTOFL
 70
     0
  9
$DIMTVP
 40
0.0
  9
$DIMTIX
 70
     0
  9
$DIMSOXD
 70
     0
  9
$DIMSAH
 70
     0
  9
$DIMBLK1
  1

  9
$DIMBLK2
  1

  9
$DIMSTYLE
  2
Standard
  9
$DIMCLRD
 70
     0
  9
$DIMCLRE
 70
     0
  9
$DIMCLRT
 70
     0
  9
$DIMTFAC
 40
1.0
  9
$DIMGAP
 40
0.09
  9
$DIMJUST
 70
     0
  9
$DIMSD1
 70
     0
  9
$DIMSD2
 70
     0
  9
$DIMTOLJ
 70
     1
  9
$DIMTZIN
 70
     0
  9
$DIMALTZ
 70
     0
  9
$DIMALTTZ
 70
     0
  9
$DIMUPT
 70
     0
  9
$DIMDEC
 70
     4
  9
$DIMTDEC
 70
     4
  9
$DIMALTU
 70
     2
  9
$DIMALTTD
 70
     2
  9
$DIMTXSTY
  7
Standard
  9
$DIMAUNIT
 70
     0
  9
$DIMADEC
 70
     0
  9
$DIMALTRND
 40
0.0
  9
$DIMAZIN
 70
     0
  9
$DIMDSEP
 70
    46
  9
$DIMATFIT
 70
     3
  9
$DIMFRAC
 70
     0
  9
$DIMLDRBLK
  1

  9
$DIMLUNIT
 70
     2
  9
$DIMLWD
 70
    -2
  9
$DIMLWE
 70
    -2
  9
$DIMTMOVE
 70
     0
  9
$LUNITS
 70
     2
  9
$LUPREC
 70
     4
  9
$SKETCHINC
 40
0.1
  9
$FILLETRAD
 40
0.5
  9
$AUNITS
 70
     0
  9
$AUPREC
 70
     0
  9
$MENU
  1
.
  9
$ELEVATION
 40
0.0
  9
$PELEVATION
 40
0.0
  9
$THICKNESS
 40
0.0
  9
$LIMCHECK
 70
     0
  9
$CHAMFERA
 40
0.5
  9
$CHAMFERB
 40
0.5
  9
$CHAMFERC
 40
1.0
  9
$CHAMFERD
 40
0.0
  9
$SKPOLY
 70
     0
  9
$TDCREATE
 40
2456997.601399225
  9
$TDUCREATE
 40
2456997.559732558
  9
$TDUPDATE
 40
2456997.601399583
  9
$TDUUPDATE
 40
2456997.559732917
  9
$TDINDWG
 40
0.0000000116
  9
$TDUSRTIMER
 40
0.0000000116
  9
$USRTIMER
 70
     1
  9
$ANGBASE
 50
0.0
  9
$ANGDIR
 70
     0
  9
$PDMODE
 70
     0
  9
$PDSIZE
 40
0.0
  9
$PLINEWID
 40
0.0
  9
$SPLFRAME
 70
     0
  9
$SPLINETYPE
 70
     6
  9
$SPLINESEGS
 70
     8
  9
$HANDSEED
  5
338
  9
$SURFTAB1
 70
     6
  9
$SURFTAB2
 70
     6
  9
$SURFTYPE
 70
     6
  9
$SURFU
 70
     6
  9
$SURFV
 70
     6
  9
$UCSBASE
  2

  9
$UCSNAME
  2

  9
$UCSORG
 10
0.0
 20
0.0
 30
0.0
  9
$UCSXDIR
 10
1.0
 20
0.0
 30
0.0
  9
$UCSYDIR
 10
0.0
 20
1.0
 30
0.0
  9
$UCSORTHOREF
  2

  9
$UCSORTHOVIEW
 70
     0
  9
$UCSORGTOP
 10
0.0
 20
0.0
 30
0.0
  9
$UCSORGBOTTOM
 10
0.0
 20
0.0
 30
0.0
  9
$UCSORGLEFT
 10
0.0
 20
0.0
 30
0.0
  9
$UCSORGRIGHT
 10
0.0
 20
0.0
 30
0.0
  9
$UCSORGFRONT
 10
0.0
 20
0.0
 30
0.0
  9
$UCSORGBACK
 10
0.0
 20
0.0
 30
0.0
  9
$PUCSBASE
  2

  9
$PUCSNAME
  2

  9
$PUCSORG
 10
0.0
 20
0.0
 30
0.0
  9
$PUCSXDIR
 10
1.0
 20
0.0
 30
0.0
  9
$PUCSYDIR
 10
0.0
 20
1.0
 30
0.0
  9
$PUCSORTHOREF
  2

  9
$PUCSORTHOVIEW
 70
     0
  9
$PUCSORGTOP
 10
0.0
 20
0.0
 30
0.0
  9
$PUCSORGBOTTOM
 10
0.0
 20
0.0
 30
0.0
  9
$PUCSORGLEFT
 10
0.0
 20
0.0
 30
0.0
  9
$PUCSORGRIGHT
 10
0.0
 20
0.0
 30
0.0
  9
$PUCSORGFRONT
 10
0.0
 20
0.0
 30
0.0
  9
$PUCSORGBACK
 10
0.0
 20
0.0
 30
0.0
  9
$USERI1
 70
     0
  9
$USERI2
 70
     0
  9
$USERI3
 70
     0
  9
$USERI4
 70
     0
  9
$USERI5
 70
     0
  9
$USERR1
 40
18.1
  9
$USERR2
 40
0.0
  9
$USERR3
 40
0.0
  9
$USERR4
 40
0.0
  9
$USERR5
 40
0.0
  9
$WORLDVIEW
 70
     1
  9
$SHADEDGE
 70
     3
  9
$SHADEDIF
 70
    70
  9
$TILEMODE
 70
     1
  9
$MAXACTVP
 70
    64
  9
$PINSBASE
 10
0.0
 20
0.0
 30
0.0
  9
$PLIMCHECK
 70
     0
  9
$PEXTMIN
 10
1.00000000000000E+20
 20
1.00000000000000E+20
 30
1.00000000000000E+20
  9
$PEXTMAX
 10
-1.00000000000000E+20
 20
-1.00000000000000E+20
 30
-1.00000000000000E+20
  9
$PLIMMIN
 10
0.0
 20
0.0
  9
$PLIMMAX
 10
12.0
 20
9.0
  9
$UNITMODE
 70
     0
  9
$VISRETAIN
 70
     1
  9
$PLINEGEN
 70
     0
  9
$PSLTSCALE
 70
     1
  9
$TREEDEPTH
 70
  3020
  9
$CMLSTYLE
  2
Standard
  9
$CMLJUST
 70
     0
  9
$CMLSCALE
 40
1.0
  9
$PROXYGRAPHICS
 70
     1
  9
$MEASUREMENT
 70
     1
  9
$CELWEIGHT
370
    -1
  9
$ENDCAPS
280
     0
  9
$JOINSTYLE
280
     0
  9
$LWDISPLAY
290
     0
  9
$INSUNITS
 70
     4
  9
$HYPERLINKBASE
  1

  9
$STYLESHEET
  1

  9
$XEDIT
290
     1
  9
$CEPSNTYPE
380
     0
  9
$PSTYLEMODE
290
     1
  9
$FINGERPRINTGUID
  2
{D47D5502-CB78-4B60-A297-75F20D714AE7}
  9
$VERSIONGUID
  2
{FAEB1C32-E019-11D5-929B-00C0DF256EC4}
  9
$EXTNAMES
290
     1
  9
$PSVPSCALE
 40
0.0
  9
$OLESTARTUP
290
     0
  0
ENDSEC
  0
SECTION
  2
CLASSES
  0
CLASS
  1
ACDBDICTIONARYWDFLT
  2
AcDbDictionaryWithDefault
  3
ObjectDBX Classes
 90
        0
280
     0
281
     0
  0
CLASS
  1
VISUALSTYLE
  2
AcDbVisualStyle
  3
ObjectDBX Classes
 90
     4095
280
     0
281
     0
  0
CLASS
  1
MATERIAL
  2
AcDbMaterial
  3
ObjectDBX Classes
 90
     1153
280
     0
281
     0
  0
CLASS
  1
DICTIONARYVAR
  2
AcDbDictionaryVar
  3
ObjectDBX Classes
 90
        0
280
     0
281
     0
  0
CLASS
  1
ACDBPLACEHOLDER
  2
AcDbPlaceHolder
  3
ObjectDBX Classes
 90
        0
280
     0
281
     0
  0
CLASS
  1
LAYOUT
  2
AcDbLayout
  3
ObjectDBX Classes
 90
        0
280
     0
281
     0
  0
ENDSEC
  0
SECTION
  2
TABLES
  0
TABLE
  2
VPORT
  5
8
330
0
100
AcDbSymbolTable
 70
     1
  0
VPORT
  5
29
330
8
100
AcDbSymbolTableRecord
100
AcDbViewportTableRecord
  2
*Active
 70
     0
 10
0.0
 20
0.0
 11
1.0
 21
1.0
 12
909.56982459239
 22
-457.589631968033
 13
0.0
 23
0.0
 14
0.5
 24
0.5
 15
0.5
 25
0.5
 16
0.0
 26
0.0
 36
1.0
 17
0.0
 27
0.0
 37
0.0
 40
326.7000000000002
 41
1.60267857142857
 42
50.0
 43
0.0
 44
0.0
 50
0.0
 51
0.0
 71
     0
 72
   100
 73
     1
 74
     3
 75
     0
 76
     0
 77
     0
 78
     0
281
     0
 65
     1
110
0.0
120
0.0
130
0.0
111
1.0
121
0.0
131
0.0
112
0.0
122
1.0
132
0.0
 79
     0
146
0.0
  0
ENDTAB
  0
TABLE
  2
LTYPE
  5
5
330
0
100
AcDbSymbolTable
 70
     8
  0
LTYPE
  5
14
330
5
100
AcDbSymbolTableRecord
100
AcDbLinetypeTableRecord
  2
ByBlock
 70
     0
  3

 72
    65
 73
     0
 40
0.0
  0
LTYPE
  5
15
330
5
100
AcDbSymbolTableRecord
100
AcDbLinetypeTableRecord
  2
ByLayer
 70
     0
  3

 72
    65
 73
     0
 40
0.0
  0
LTYPE
  5
16
330
5
100
AcDbSymbolTableRecord
100
AcDbLinetypeTableRecord
  2
Continuous
 70
     0
  3
Solid line
 72
    65
 73
     0
 40
0.0
  0
LTYPE
  5
3F
330
5
100
AcDbSymbolTableRecord
100
AcDbLinetypeTableRecord
  2
DASHED
 70
     0
  3
Dashed
 72
    65
 73
     2
 40
15.0
 49
7.0
 74
     0
 49
-8.0
 74
     0
  0
LTYPE
  5
40
330
5
100
AcDbSymbolTableRecord
100
AcDbLinetypeTableRecord
  2
DOTTED
 70
     0
  3
Dotted
 72
    65
 73
     2
 40
1.0
 49
0.0
 74
     0
 49
-1.0
 74
     0
  0
LTYPE
  5
41
330
5
100
AcDbSymbolTableRecord
100
AcDbLinetypeTableRecord
  2
DOT_CENTER
 70
     0
  3
Dot_Center
 72
    65
 73
     4
 40
14.0
 49
12.0
 74
     0
 49
-1.0
 74
     0
 49
0.0
 74
     0
 49
-1.0
 74
     0
  0
LTYPE
  5
42
330
5
100
AcDbSymbolTableRecord
100
AcDbLinetypeTableRecord
  2
LONG_DASHED
 70
     0
  3
Long_Dashed
 72
    65
 73
     2
 40
15.0
 49
10.0
 74
     0
 49
-5.0
 74
     0
  0
LTYPE
  5
43
330
5
100
AcDbSymbolTableRecord
100
AcDbLinetypeTableRecord
  2
DASH_CENTER
 70
     0
  3
Dash_Center
 72
    65
 73
     4
 40
14.0
 49
11.0
 74
     0
 49
-1.0
 74
     0
 49
1.0
 74
     0
 49
-1.0
 74
     0
  0
LTYPE
  5
44
330
5
100
AcDbSymbolTableRecord
100
AcDbLinetypeTableRecord
  2
PHANTOM
 70
     0
  3
Phantom
 72
    65
 73
     6
 40
13.0
 49
10.0
 74
     0
 49
-1.0
 74
     0
 49
0.0
 74
     0
 49
-1.0
 74
     0
 49
0.0
 74
     0
 49
-1.0
 74
     0
  0
LTYPE
  5
45
330
5
100
AcDbSymbolTableRecord
100
AcDbLinetypeTableRecord
  2
CENTER_DASH_DASH
 70
     0
  3
Center_Dash_Dash
 72
    65
 73
     6
 40
14.0
 49
9.0
 74
     0
 49
-1.0
 74
     0
 49
1.0
 74
     0
 49
-1.0
 74
     0
 49
1.0
 74
     0
 49
-1.0
 74
     0
  0
ENDTAB
  0
TABLE
  2
LAYER
  5
2
330
0
100
AcDbSymbolTable
 70
     2
  0
LAYER
  5
10
330
2
100
AcDbSymbolTableRecord
100
AcDbLayerTableRecord
  2
0
 70
     0
 62
     7
  6
Continuous
370
    -3
390
F
  0
LAYER
  5
46
330
2
100
AcDbSymbolTableRecord
100
AcDbLayerTableRecord
  2
1
 70
     0
 62
     7
  6
Continuous
370
    -3
390
F
  0
ENDTAB
  0
TABLE
  2
STYLE
  5
3
330
0
100
AcDbSymbolTable
 70
     3
  0
STYLE
  5
11
330
3
100
AcDbSymbolTableRecord
100
AcDbTextStyleTableRecord
  2
Standard
 70
     0
 40
0.0
 41
1.0
 50
0.0
 71
     0
 42
0.2
  3
txt
  4

  0
STYLE
  5
2B0
330
3
100
AcDbSymbolTableRecord
100
AcDbTextStyleTableRecord
  2
CONVERTER_11
 70
     0
 40
0.0
 41
1.2
 50
0.0
 71
     0
 42
0.2
  3
ARIAL.TTF
  4

  0
STYLE
  5
2BF
330
3
100
AcDbSymbolTableRecord
100
AcDbTextStyleTableRecord
  2
CONVERTER_12
 70
     0
 40
0.0
 41
0.95
 50
0.0
 71
     0
 42
0.2
  3
simplex.shx
  4

  0
ENDTAB
  0
TABLE
  2
VIEW
  5
6
330
0
100
AcDbSymbolTable
 70
     0
  0
ENDTAB
  0
TABLE
  2
UCS
  5
7
330
0
100
AcDbSymbolTable
 70
     0
  0
ENDTAB
  0
TABLE
  2
APPID
  5
9
330
0
100
AcDbSymbolTable
 70
     1
  0
APPID
  5
12
330
9
100
AcDbSymbolTableRecord
100
AcDbRegAppTableRecord
  2
ACAD
 70
     0
  0
ENDTAB
  0
TABLE
  2
DIMSTYLE
  5
A
330
0
100
AcDbSymbolTable
 70
     8
100
AcDbDimStyleTable
  0
DIMSTYLE
105
27
330
A
100
AcDbSymbolTableRecord
100
AcDbDimStyleTableRecord
  2
Standard
 70
     0
178
     0
340
11
  0
DIMSTYLE
105
2C3
102
{ACAD_REACTORS
330
2C4
102
}
330
A
100
AcDbSymbolTableRecord
100
AcDbDimStyleTableRecord
  2
ME10_DIM_10
 70
     0
 41
3.0
 42
0.5
 44
1.0
 73
     0
 74
     0
 77
     1
 78
     8
140
3.0
147
2.0
172
     1
173
     1
174
     1
175
     1
176
     2
177
     2
271
     2
178
     4
271
     2
340
2BF
  0
DIMSTYLE
105
2CE
102
{ACAD_REACTORS
330
2CF
102
}
330
A
100
AcDbSymbolTableRecord
100
AcDbDimStyleTableRecord
  2
ME10_DIM_11
 70
     0
 41
3.0
 42
0.5
 44
1.0
 73
     0
 74
     0
 77
     1
 78
     8
140
3.0
147
2.0
172
     1
173
     1
174
     1
175
     1
176
     2
177
     2
271
     2
178
     4
271
     2
340
2BF
  0
DIMSTYLE
105
2D9
102
{ACAD_REACTORS
330
2DA
102
}
330
A
100
AcDbSymbolTableRecord
100
AcDbDimStyleTableRecord
  2
ME10_DIM_12
 70
     0
 41
3.0
 42
0.5
 44
1.0
 73
     0
 74
     0
 77
     1
 78
     8
140
3.0
147
2.0
172
     1
173
     1
174
     1
175
     1
176
     2
177
     2
271
     2
178
     4
271
     2
340
2BF
  0
DIMSTYLE
105
2E4
102
{ACAD_REACTORS
330
2E5
102
}
330
A
100
AcDbSymbolTableRecord
100
AcDbDimStyleTableRecord
  2
ME10_DIM_13
 70
     0
 41
3.0
 42
0.5
 44
1.0
 73
     0
 74
     0
 77
     1
 78
     8
140
3.0
147
2.0
172
     1
173
     1
174
     1
175
     1
176
     2
177
     2
271
     2
178
     4
271
     2
340
2BF
  0
DIMSTYLE
105
2EF
102
{ACAD_REACTORS
330
2F0
102
}
330
A
100
AcDbSymbolTableRecord
100
AcDbDimStyleTableRecord
  2
ME10_DIM_14
 70
     0
 41
3.0
 42
0.5
 44
1.0
 73
     0
 74
     0
 77
     1
 78
     8
140
3.0
147
2.0
172
     1
173
     1
174
     1
175
     1
176
     2
177
     2
271
     2
178
     4
271
     2
340
2BF
  0
DIMSTYLE
105
2FA
102
{ACAD_REACTORS
330
2FB
102
}
330
A
100
AcDbSymbolTableRecord
100
AcDbDimStyleTableRecord
  2
ME10_DIM_15
 70
     0
 41
3.0
 42
0.5
 44
1.0
 73
     0
 74
     0
 77
     1
 78
     8
140
3.0
147
2.0
172
     1
173
     1
174
     1
175
     1
176
     2
177
     2
271
     2
178
     4
271
     2
340
2BF
  0
DIMSTYLE
105
307
102
{ACAD_REACTORS
330
308
102
}
330
A
100
AcDbSymbolTableRecord
100
AcDbDimStyleTableRecord
  2
ME10_DIM_16
 70
     0
 41
3.0
 42
0.5
 44
1.0
 73
     0
 74
     0
 77
     1
 78
     8
140
3.0
147
2.0
172
     1
173
     1
174
     1
175
     1
176
     2
177
     2
271
     2
178
     4
271
     2
340
2BF
  0
ENDTAB
  0
TABLE
  2
BLOCK_RECORD
  5
1
330
0
100
AcDbSymbolTable
 70
     8
  0
BLOCK_RECORD
  5
1F
330
1
100
AcDbSymbolTableRecord
100
AcDbBlockTableRecord
  2
*Model_Space
340
22
  0
BLOCK_RECORD
  5
1B
330
1
100
AcDbSymbolTableRecord
100
AcDbBlockTableRecord
  2
*Paper_Space
340
1E
  0
BLOCK_RECORD
  5
23
330
1
100
AcDbSymbolTableRecord
100
AcDbBlockTableRecord
  2
*Paper_Space0
340
26
  0
BLOCK_RECORD
  5
2B9
330
1
100
AcDbSymbolTableRecord
100
AcDbBlockTableRecord
  2
*D1
340
0
  0
BLOCK_RECORD
  5
2C5
330
1
100
AcDbSymbolTableRecord
100
AcDbBlockTableRecord
  2
*D2
340
0
  0
BLOCK_RECORD
  5
2D0
330
1
100
AcDbSymbolTableRecord
100
AcDbBlockTableRecord
  2
*D3
340
0
  0
BLOCK_RECORD
  5
2DB
330
1
100
AcDbSymbolTableRecord
100
AcDbBlockTableRecord
  2
*D4
340
0
  0
BLOCK_RECORD
  5
2E6
330
1
100
AcDbSymbolTableRecord
100
AcDbBlockTableRecord
  2
*D5
340
0
  0
BLOCK_RECORD
  5
2F1
330
1
100
AcDbSymbolTableRecord
100
AcDbBlockTableRecord
  2
*D6
340
0
  0
BLOCK_RECORD
  5
2FC
330
1
100
AcDbSymbolTableRecord
100
AcDbBlockTableRecord
  2
*D7
340
0
  0
ENDTAB
  0
ENDSEC
  0
SECTION
  2
BLOCKS
  0
BLOCK
  5
20
330
1F
100
AcDbEntity
  8
0
100
AcDbBlockBegin
  2
*Model_Space
 70
     0
 10
0.0
 20
0.0
 30
0.0
  3
*Model_Space
  1

  0
ENDBLK
  5
21
330
1F
100
AcDbEntity
  8
0
100
AcDbBlockEnd
  0
BLOCK
  5
1C
330
1B
100
AcDbEntity
 67
     1
  8
0
100
AcDbBlockBegin
  2
*Paper_Space
 70
     0
 10
0.0
 20
0.0
 30
0.0
  3
*Paper_Space
  1

  0
ENDBLK
  5
1D
330
1B
100
AcDbEntity
 67
     1
  8
0
100
AcDbBlockEnd
  0
BLOCK
  5
24
330
23
100
AcDbEntity
  8
0
100
AcDbBlockBegin
  2
*Paper_Space0
 70
     0
 10
0.0
 20
0.0
 30
0.0
  3
*Paper_Space0
  1

  0
ENDBLK
  5
25
330
23
100
AcDbEntity
  8
0
100
AcDbBlockEnd
  0
BLOCK
  5
2C1
330
2B9
100
AcDbEntity
  8
0
100
AcDbBlockBegin
  2
*D1
 70
     1
 10
0.0
 20
0.0
 30
0.0
  3
*D1
  1

  0
LINE
  5
2BA
330
2B9
100
AcDbEntity
  8
1
  6
Continuous
 62
     2
100
AcDbLine
 10
853.839569933309
 20
-472.864398834378
 30
0.0
 11
901.839569933309
 21
-472.864398834378
 31
0.0
  0
LINE
  5
2BB
330
2B9
100
AcDbEntity
  8
1
  6
Continuous
 62
     2
100
AcDbLine
 10
853.839569933309
 20
-453.6973863155124
 30
0.0
 11
853.839569933309
 21
-473.864398834378
 31
0.0
  0
LINE
  5
2BC
330
2B9
100
AcDbEntity
  8
1
  6
Continuous
 62
     2
100
AcDbLine
 10
901.839569933309
 20
-453.6973863155124
 30
0.0
 11
901.839569933309
 21
-473.864398834378
 31
0.0
  0
SOLID
  5
2BD
330
2B9
100
AcDbEntity
  8
1
 62
     2
100
AcDbTrace
 10
856.839569933309
 20
-472.4694413416158
 30
0.0
 11
856.839569933309
 21
-473.2593563271402
 31
0.0
 12
853.839569933309
 22
-472.864398834378
 32
0.0
 13
853.839569933309
 23
-472.864398834378
 33
0.0
  0
SOLID
  5
2BE
330
2B9
100
AcDbEntity
  8
1
 62
     2
100
AcDbTrace
 10
898.839569933309
 20
-473.2593563271402
 30
0.0
 11
898.839569933309
 21
-472.4694413416158
 31
0.0
 12
901.839569933309
 22
-472.864398834378
 32
0.0
 13
901.839569933309
 23
-472.864398834378
 33
0.0
  0
MTEXT
  5
2C0
330
2B9
100
AcDbEntity
  8
1
 62
     4
100
AcDbMText
 10
875.589569933309
 20
-470.864398834378
 30
0.0
 40
3.0
 41
0.0
 71
     7
 72
     1
  1
48
  7
CONVERTER_12
 11
0.9999999999970619
 21
2.424068405545306E-6
 31
0.0
 73
     1
 44
0.60024009603842
  0
ENDBLK
  5
2C2
330
2B9
100
AcDbEntity
  8
0
100
AcDbBlockEnd
  0
BLOCK
  5
2CC
330
2C5
100
AcDbEntity
  8
0
100
AcDbBlockBegin
  2
*D2
 70
     1
 10
0.0
 20
0.0
 30
0.0
  3
*D2
  1

  0
LINE
  5
2C6
330
2C5
100
AcDbEntity
  8
1
  6
Continuous
 62
     2
100
AcDbLine
 10
945.4895699333093
 20
-473.014398834378
 30
0.0
 11
973.9895699333091
 21
-473.014398834378
 31
0.0
  0
LINE
  5
2C7
330
2C5
100
AcDbEntity
  8
1
  6
Continuous
 62
     2
100
AcDbLine
 10
945.4895699333093
 20
-453.6973863155124
 30
0.0
 11
945.4895699333093
 21
-474.014398834378
 31
0.0
  0
LINE
  5
2C8
330
2C5
100
AcDbEntity
  8
1
  6
Continuous
 62
     2
100
AcDbLine
 10
973.9895699333091
 20
-453.6973863155124
 30
0.0
 11
973.9895699333091
 21
-474.014398834378
 31
0.0
  0
SOLID
  5
2C9
330
2C5
100
AcDbEntity
  8
1
 62
     2
100
AcDbTrace
 10
948.4895699333093
 20
-472.6194413416158
 30
0.0
 11
948.4895699333093
 21
-473.4093563271401
 31
0.0
 12
945.4895699333093
 22
-473.014398834378
 32
0.0
 13
945.4895699333093
 23
-473.014398834378
 33
0.0
  0
SOLID
  5
2CA
330
2C5
100
AcDbEntity
  8
1
 62
     2
100
AcDbTrace
 10
970.9895699333091
 20
-473.4093563271401
 30
0.0
 11
970.9895699333091
 21
-472.6194413416158
 31
0.0
 12
973.9895699333091
 22
-473.014398834378
 32
0.0
 13
973.9895699333091
 23
-473.014398834378
 33
0.0
  0
MTEXT
  5
2CB
330
2C5
100
AcDbEntity
  8
1
 62
     4
100
AcDbMText
 10
955.4645699333092
 20
-470.714398834378
 30
0.0
 40
3.0
 41
0.0
 71
     7
 72
     1
  1
28,5
  7
CONVERTER_12
 11
0.9999999999970619
 21
2.424068405545306E-6
 31
0.0
 73
     1
 44
0.60024009603842
  0
ENDBLK
  5
2CD
330
2C5
100
AcDbEntity
  8
0
100
AcDbBlockEnd
  0
BLOCK
  5
2D7
330
2D0
100
AcDbEntity
  8
0
100
AcDbBlockBegin
  2
*D3
 70
     1
 10
0.0
 20
0.0
 30
0.0
  3
*D3
  1

  0
LINE
  5
2D1
330
2D0
100
AcDbEntity
  8
1
  6
Continuous
 62
     2
100
AcDbLine
 10
942.3395699333092
 20
-488.245425634519
 30
0.0
 11
977.1395699333092
 21
-488.245425634519
 31
0.0
  0
LINE
  5
2D2
330
2D0
100
AcDbEntity
  8
1
  6
Continuous
 62
     2
100
AcDbLine
 10
942.3395699333092
 20
-445.1973863155124
 30
0.0
 11
942.3395699333092
 21
-489.245425634519
 31
0.0
  0
LINE
  5
2D3
330
2D0
100
AcDbEntity
  8
1
  6
Continuous
 62
     2
100
AcDbLine
 10
977.1395699333092
 20
-445.1973863155124
 30
0.0
 11
977.1395699333092
 21
-489.245425634519
 31
0.0
  0
SOLID
  5
2D4
330
2D0
100
AcDbEntity
  8
1
 62
     2
100
AcDbTrace
 10
945.3395699333092
 20
-487.8504681417568
 30
0.0
 11
945.3395699333092
 21
-488.6403831272812
 31
0.0
 12
942.3395699333092
 22
-488.245425634519
 32
0.0
 13
942.3395699333092
 23
-488.245425634519
 33
0.0
  0
SOLID
  5
2D5
330
2D0
100
AcDbEntity
  8
1
 62
     2
100
AcDbTrace
 10
974.1395699333092
 20
-488.6403831272812
 30
0.0
 11
974.1395699333092
 21
-487.8504681417568
 31
0.0
 12
977.1395699333092
 22
-488.245425634519
 32
0.0
 13
977.1395699333092
 23
-488.245425634519
 33
0.0
  0
MTEXT
  5
2D6
330
2D0
100
AcDbEntity
  8
1
 62
     4
100
AcDbMText
 10
955.6145699333092
 20
-485.945425634519
 30
0.0
 40
3.0
 41
0.0
 71
     7
 72
     1
  1
34,8
  7
CONVERTER_12
 11
0.9999999999970619
 21
2.424068405545306E-6
 31
0.0
 73
     1
 44
0.60024009603842
  0
ENDBLK
  5
2D8
330
2D0
100
AcDbEntity
  8
0
100
AcDbBlockEnd
  0
BLOCK
  5
2E2
330
2DB
100
AcDbEntity
  8
0
100
AcDbBlockBegin
  2
*D4
 70
     1
 10
0.0
 20
0.0
 30
0.0
  3
*D4
  1

  0
LINE
  5
2DC
330
2DB
100
AcDbEntity
  8
1
  6
Continuous
 62
     2
100
AcDbLine
 10
994.105491766693
 20
-453.1973863155124
 30
0.0
 11
994.105491766693
 21
-399.1973863155124
 31
0.0
  0
LINE
  5
2DD
330
2DB
100
AcDbEntity
  8
1
  6
Continuous
 62
     2
100
AcDbLine
 10
967.089569933309
 20
-453.1973863155124
 30
0.0
 11
995.105491766693
 21
-453.1973863155124
 31
0.0
  0
LINE
  5
2DE
330
2DB
100
AcDbEntity
  8
1
  6
Continuous
 62
     2
100
AcDbLine
 10
971.4895699333091
 20
-399.1973863155124
 30
0.0
 11
995.105491766693
 21
-399.1973863155124
 31
0.0
  0
SOLID
  5
2DF
330
2DB
100
AcDbEntity
  8
1
 62
     2
100
AcDbTrace
 10
993.7105342739309
 20
-450.1973863155124
 30
0.0
 11
994.5004492594552
 21
-450.1973863155124
 31
0.0
 12
994.105491766693
 22
-453.1973863155124
 32
0.0
 13
994.105491766693
 23
-453.1973863155124
 33
0.0
  0
SOLID
  5
2E0
330
2DB
100
AcDbEntity
  8
1
 62
     2
100
AcDbTrace
 10
994.5004492594552
 20
-402.1973863155124
 30
0.0
 11
993.7105342739309
 21
-402.1973863155124
 31
0.0
 12
994.105491766693
 22
-399.1973863155124
 32
0.0
 13
994.105491766693
 23
-399.1973863155124
 33
0.0
  0
MTEXT
  5
2E1
330
2DB
100
AcDbEntity
  8
1
 62
     4
100
AcDbMText
 10
992.105491766693
 20
-428.4473863155124
 30
0.0
 40
3.0
 41
0.0
 71
     7
 72
     1
  1
54
  7
CONVERTER_12
 11
0.0
 21
1.0
 31
0.0
 73
     1
 44
0.60024009603842
  0
ENDBLK
  5
2E3
330
2DB
100
AcDbEntity
  8
0
100
AcDbBlockEnd
  0
BLOCK
  5
2ED
330
2E6
100
AcDbEntity
  8
0
100
AcDbBlockBegin
  2
*D5
 70
     1
 10
0.0
 20
0.0
 30
0.0
  3
*D5
  1

  0
LINE
  5
2E7
330
2E6
100
AcDbEntity
  8
1
  6
Continuous
 62
     2
100
AcDbLine
 10
915.9814399222466
 20
-394.982478397483
 30
0.0
 11
921.7531046280337
 21
-416.5226243237291
 31
0.0
  0
LINE
  5
2E8
330
2E6
100
AcDbEntity
  8
1
  6
Continuous
 62
     2
100
AcDbLine
 10
905.4083029149837
 20
-397.8155419200431
 30
0.0
 11
916.9473657485357
 21
-394.7236593523804
 31
0.0
  0
LINE
  5
2E9
330
2E6
100
AcDbEntity
  8
1
  6
Continuous
 62
     2
100
AcDbLine
 10
911.1799676207708
 20
-419.3556878462893
 30
0.0
 11
922.7190304543228
 21
-416.2638052786266
 31
0.0
  0
SOLID
  5
2EA
330
2E6
100
AcDbEntity
  8
1
 62
     2
100
AcDbTrace
 10
917.1393967000996
 20
-397.7780333552174
 30
0.0
 11
916.3763974150089
 21
-397.982478397483
 31
0.0
 12
915.9814399222466
 22
-394.982478397483
 32
0.0
 13
915.9814399222466
 23
-394.982478397483
 33
0.0
  0
SOLID
  5
2EB
330
2E6
100
AcDbEntity
  8
1
 62
     2
100
AcDbTrace
 10
920.5951478501808
 20
-413.7270693659947
 30
0.0
 11
921.3581471352715
 21
-413.5226243237291
 31
0.0
 12
921.7531046280337
 22
-416.5226243237291
 32
0.0
 13
921.7531046280337
 23
-416.5226243237291
 33
0.0
  0
MTEXT
  5
2EC
330
2E6
100
AcDbEntity
  8
1
 62
     4
100
AcDbMText
 10
920.2320114710592
 20
-399.6410877939043
 30
0.0
 40
3.0
 41
0.0
 71
     7
 72
     1
  1
Pg 16
  7
CONVERTER_12
 11
0.2588190451025579
 21
-0.9659258262890584
 31
0.0
 73
     1
 44
0.60024009603842
  0
ENDBLK
  5
2EE
330
2E6
100
AcDbEntity
  8
0
100
AcDbBlockEnd
  0
BLOCK
  5
2F8
330
2F1
100
AcDbEntity
  8
0
100
AcDbBlockBegin
  2
*D6
 70
     1
 10
0.0
 20
0.0
 30
0.0
  3
*D6
  1

  0
LINE
  5
2F2
330
2F1
100
AcDbEntity
  8
1
  6
Continuous
 62
     2
100
AcDbLine
 10
901.839569933309
 20
-473.014398834378
 30
0.0
 11
910.4511266147788
 21
-473.014398834378
 31
0.0
  0
LINE
  5
2F3
330
2F1
100
AcDbEntity
  8
1
  6
Continuous
 62
     2
100
AcDbLine
 10
901.839569933309
 20
-453.6973863155124
 30
0.0
 11
901.839569933309
 21
-474.014398834378
 31
0.0
  0
LINE
  5
2F4
330
2F1
100
AcDbEntity
  8
1
  6
Continuous
 62
     2
100
AcDbLine
 10
910.4511266147788
 20
-419.067467833866
 30
0.0
 11
910.4511266147788
 21
-474.014398834378
 31
0.0
  0
SOLID
  5
2F5
330
2F1
100
AcDbEntity
  8
1
 62
     2
100
AcDbTrace
 10
904.839569933309
 20
-472.6194413416158
 30
0.0
 11
904.839569933309
 21
-473.4093563271401
 31
0.0
 12
901.839569933309
 22
-473.014398834378
 32
0.0
 13
901.839569933309
 23
-473.014398834378
 33
0.0
  0
SOLID
  5
2F6
330
2F1
100
AcDbEntity
  8
1
 62
     2
100
AcDbTrace
 10
907.4511266147788
 20
-473.4093563271401
 30
0.0
 11
907.4511266147788
 21
-472.6194413416158
 31
0.0
 12
910.4511266147788
 22
-473.014398834378
 32
0.0
 13
910.4511266147788
 23
-473.014398834378
 33
0.0
  0
MTEXT
  5
2F7
330
2F1
100
AcDbEntity
  8
1
 62
     4
100
AcDbMText
 10
903.220348274044
 20
-470.714398834378
 30
0.0
 40
3.0
 41
0.0
 71
     7
 72
     1
  1
8,6
  7
CONVERTER_12
 11
0.9999999999970619
 21
2.424068405545306E-6
 31
0.0
 73
     1
 44
0.60024009603842
  0
ENDBLK
  5
2F9
330
2F1
100
AcDbEntity
  8
0
100
AcDbBlockEnd
  0
BLOCK
  5
305
330
2FC
100
AcDbEntity
  8
0
100
AcDbBlockBegin
  2
*D7
 70
     1
 10
0.0
 20
0.0
 30
0.0
  3
*D7
  1

  0
LINE
  5
2FD
330
2FC
100
AcDbEntity
  8
1
  6
Continuous
 62
     2
100
AcDbLine
 10
994.105491766693
 20
-405.1973863155124
 30
0.0
 11
994.105491766693
 21
-399.1973863155124
 31
0.0
  0
LINE
  5
2FE
330
2FC
100
AcDbEntity
  8
1
  6
Continuous
 62
     2
100
AcDbLine
 10
994.105491766693
 20
-399.1973863155124
 30
0.0
 11
994.105491766693
 21
-397.9449514425944
 31
0.0
  0
LINE
  5
2FF
330
2FC
100
AcDbEntity
  8
1
  6
Continuous
 62
     2
100
AcDbLine
 10
994.105491766693
 20
-397.9449514425944
 30
0.0
 11
994.105491766693
 21
-385.520769850671
 31
0.0
  0
LINE
  5
300
330
2FC
100
AcDbEntity
  8
1
  6
Continuous
 62
     2
100
AcDbLine
 10
971.4895699333091
 20
-399.1973863155124
 30
0.0
 11
995.105491766693
 21
-399.1973863155124
 31
0.0
  0
LINE
  5
301
330
2FC
100
AcDbEntity
  8
1
  6
Continuous
 62
     2
100
AcDbLine
 10
960.2395699333092
 20
-397.9449514425944
 30
0.0
 11
995.105491766693
 21
-397.9449514425944
 31
0.0
  0
SOLID
  5
302
330
2FC
100
AcDbEntity
  8
1
 62
     2
100
AcDbTrace
 10
994.5004492594552
 20
-402.1973863155124
 30
0.0
 11
993.7105342739309
 21
-402.1973863155124
 31
0.0
 12
994.105491766693
 22
-399.1973863155124
 32
0.0
 13
994.105491766693
 23
-399.1973863155124
 33
0.0
  0
SOLID
  5
303
330
2FC
100
AcDbEntity
  8
1
 62
     2
100
AcDbTrace
 10
993.7105342739309
 20
-394.9449514425944
 30
0.0
 11
994.5004492594552
 21
-394.9449514425944
 31
0.0
 12
994.105491766693
 22
-397.9449514425944
 32
0.0
 13
994.105491766693
 23
-397.9449514425944
 33
0.0
  0
MTEXT
  5
304
330
2FC
100
AcDbEntity
  8
1
 62
     4
100
AcDbMText
 10
991.8054917666931
 20
-390.170769850671
 30
0.0
 40
3.0
 41
0.0
 71
     7
 72
     1
  1
1,3
  7
CONVERTER_12
 11
0.0
 21
1.0
 31
0.0
 73
     1
 44
0.60024009603842
  0
ENDBLK
  5
306
330
2FC
100
AcDbEntity
  8
0
100
AcDbBlockEnd
  0
ENDSEC
  0
SECTION
  2
ENTITIES
  0
LINE
  5
47
330
1F
100
AcDbEntity
  8
1
  6
Continuous
 62
     7
100
AcDbLine
 10
825.56982459239
 20
-586.089631968033
 30
0.0
 11
1009.56982459239
 21
-586.089631968033
 31
0.0
  0
LINE
  5
48
330
1F
100
AcDbEntity
  8
1
  6
Continuous
 62
     7
100
AcDbLine
 10
825.56982459239
 20
-601.0896319680331
 30
0.0
 11
1009.56982459239
 21
-601.0896319680331
 31
0.0
  0
LINE
  5
49
330
1F
100
AcDbEntity
  8
1
  6
Continuous
 62
     7
100
AcDbLine
 10
850.5698245923901
 20
-571.089631968033
 30
0.0
 11
850.5698245923901
 21
-566.089631968033
 31
0.0
  0
LINE
  5
4A
330
1F
100
AcDbEntity
  8
1
  6
Continuous
 62
     7
100
AcDbLine
 10
832.56982459239
 20
-571.089631968033
 30
0.0
 11
832.56982459239
 21
-566.089631968033
 31
0.0
  0
LINE
  5
4B
330
1F
100
AcDbEntity
  8
1
  6
Continuous
 62
     7
100
AcDbLine
 10
825.56982459239
 20
-566.089631968033
 30
0.0
 11
1009.56982459239
 21
-566.089631968033
 31
0.0
  0
LINE
  5
4C
330
1F
100
AcDbEntity
  8
1
  6
Continuous
 62
     7
100
AcDbLine
 10
850.5698245923901
 20
-576.089631968033
 30
0.0
 11
850.5698245923901
 21
-571.089631968033
 31
0.0
  0
LINE
  5
4D
330
1F
100
AcDbEntity
  8
1
  6
Continuous
 62
     7
100
AcDbLine
 10
832.56982459239
 20
-576.089631968033
 30
0.0
 11
832.56982459239
 21
-571.089631968033
 31
0.0
  0
LINE
  5
4E
330
1F
100
AcDbEntity
  8
1
  6
Continuous
 62
     7
100
AcDbLine
 10
825.56982459239
 20
-571.089631968033
 30
0.0
 11
1009.56982459239
 21
-571.089631968033
 31
0.0
  0
LINE
  5
4F
330
1F
100
AcDbEntity
  8
1
  6
Continuous
 62
     7
100
AcDbLine
 10
850.5698245923901
 20
-581.089631968033
 30
0.0
 11
850.5698245923901
 21
-576.089631968033
 31
0.0
  0
LINE
  5
50
330
1F
100
AcDbEntity
  8
1
  6
Continuous
 62
     7
100
AcDbLine
 10
832.56982459239
 20
-581.089631968033
 30
0.0
 11
832.56982459239
 21
-576.089631968033
 31
0.0
  0
LINE
  5
51
330
1F
100
AcDbEntity
  8
1
  6
Continuous
 62
     7
100
AcDbLine
 10
825.56982459239
 20
-576.089631968033
 30
0.0
 11
1009.56982459239
 21
-576.089631968033
 31
0.0
  0
LINE
  5
52
330
1F
100
AcDbEntity
  8
1
  6
Continuous
 62
     7
100
AcDbLine
 10
850.5698245923901
 20
-586.089631968033
 30
0.0
 11
850.5698245923901
 21
-581.089631968033
 31
0.0
  0
LINE
  5
53
330
1F
100
AcDbEntity
  8
1
  6
Continuous
 62
     7
100
AcDbLine
 10
832.56982459239
 20
-586.089631968033
 30
0.0
 11
832.56982459239
 21
-581.089631968033
 31
0.0
  0
LINE
  5
54
330
1F
100
AcDbEntity
  8
1
  6
Continuous
 62
     7
100
AcDbLine
 10
825.56982459239
 20
-581.089631968033
 30
0.0
 11
1009.56982459239
 21
-581.089631968033
 31
0.0
  0
LINE
  5
55
102
{ACAD_REACTORS
330
309
102
}
330
1F
100
AcDbEntity
  8
1
  6
Continuous
 62
     7
100
AcDbLine
 10
1000.412699432296
 20
-595.5316298876527
 30
0.0
 11
999.0793660989625
 21
-596.3008606568833
 31
0.0
  0
LINE
  5
56
102
{ACAD_REACTORS
330
309
102
}
330
1F
100
AcDbEntity
  8
1
  6
Continuous
 62
     7
100
AcDbLine
 10
999.2461252811327
 20
-595.4349954353851
 30
0.0
 11
1000.079551129969
 21
-594.9541728302868
 31
0.0
  0
LINE
  5
57
102
{ACAD_REACTORS
330
309
102
}
330
1F
100
AcDbEntity
  8
1
  6
Continuous
 62
     7
100
AcDbLine
 10
999.2461252811327
 20
-593.9229653013664
 30
0.0
 11
999.2461252811327
 21
-595.4349954353851
 31
0.0
  0
LINE
  5
58
102
{ACAD_REACTORS
330
309
102
}
330
1F
100
AcDbEntity
  8
1
  6
Continuous
 62
     7
100
AcDbLine
 10
1000.246125281133
 20
-593.9229653013664
 30
0.0
 11
999.2461252811327
 21
-593.9229653013664
 31
0.0
  0
LINE
  5
59
102
{ACAD_REACTORS
330
309
102
}
330
1F
100
AcDbEntity
  8
1
  6
Continuous
 62
     7
100
AcDbLine
 10
999.2461252811327
 20
-593.2562986346998
 30
0.0
 11
1000.246125281133
 21
-593.2562986346998
 31
0.0
  0
LINE
  5
5A
102
{ACAD_REACTORS
330
309
102
}
330
1F
100
AcDbEntity
  8
1
  6
Continuous
 62
     7
100
AcDbLine
 10
999.2461252811327
 20
-591.7442685006811
 30
0.0
 11
999.2461252811327
 21
-593.2562986346998
 31
0.0
  0
LINE
  5
5B
102
{ACAD_REACTORS
330
309
102
}
330
1F
100
AcDbEntity
  8
1
  6
Continuous
 62
     7
100
AcDbLine
 10
1000.079551129969
 20
-592.2250911057793
 30
0.0
 11
999.2461252811327
 21
-591.7442685006811
 31
0.0
  0
LINE
  5
5C
102
{ACAD_REACTORS
330
309
102
}
330
1F
100
AcDbEntity
  8
1
  6
Continuous
 62
     7
100
AcDbLine
 10
999.0793660989625
 20
-590.8784032791827
 30
0.0
 11
1000.412699432296
 21
-591.6476340484136
 31
0.0
  0
LINE
  5
5D
102
{ACAD_REACTORS
330
30A
102
}
330
1F
100
AcDbEntity
  8
1
  6
Continuous
 62
     7
100
AcDbLine
 10
991.9127919477993
 20
-595.2429013589698
 30
0.0
 11
991.9127919477993
 21
-591.9363625770964
 31
0.0
  0
LINE
  5
5E
102
{ACAD_REACTORS
330
30A
102
}
330
1F
100
AcDbEntity
  8
1
  6
Continuous
 62
     7
100
AcDbLine
 10
992.5794586144659
 20
-595.0503800507697
 30
0.0
 11
992.5794586144659
 21
-595.2429013589698
 31
0.0
  0
LINE
  5
5F
102
{ACAD_REACTORS
330
30A
102
}
330
1F
100
AcDbEntity
  8
1
  6
Continuous
 62
     7
100
AcDbLine
 10
992.5794586144659
 20
-591.9363625770964
 30
0.0
 11
992.5794586144659
 21
-595.0503800507697
 31
0.0
  0
LINE
  5
60
102
{ACAD_REACTORS
330
30B
102
}
330
1F
100
AcDbEntity
  8
1
  6
Continuous
 62
     7
100
AcDbLine
 10
995.7462177966361
 20
-597.6470145030372
 30
0.0
 11
993.579643645473
 21
-596.3970678773661
 31
0.0
  0
LINE
  5
61
102
{ACAD_REACTORS
330
30B
102
}
330
1F
100
AcDbEntity
  8
1
  6
Continuous
 62
     7
100
AcDbLine
 10
993.9127919477993
 20
-595.8196108200003
 30
0.0
 11
996.0793660989625
 21
-597.0695574456714
 31
0.0
  0
LINE
  5
62
102
{ACAD_REACTORS
330
30B
102
}
330
1F
100
AcDbEntity
  8
1
  6
Continuous
 62
     7
100
AcDbLine
 10
993.9127919477993
 20
-591.1671318078656
 30
0.0
 11
993.9127919477993
 21
-595.8196108200003
 31
0.0
  0
LINE
  5
63
102
{ACAD_REACTORS
330
30B
102
}
330
1F
100
AcDbEntity
  8
1
  6
Continuous
 62
     7
100
AcDbLine
 10
993.2461252811327
 20
-595.8196108200004
 30
0.0
 11
993.2461252811327
 21
-591.1671318078656
 31
0.0
  0
LINE
  5
64
102
{ACAD_REACTORS
330
30C
102
}
330
1F
100
AcDbEntity
  8
1
  6
Continuous
 62
     7
100
AcDbLine
 10
997.4183582641759
 20
-590.2259315497607
 30
0.0
 11
996.2461252811327
 21
-592.2562986346998
 31
0.0
  0
LINE
  5
65
102
{ACAD_REACTORS
330
30C
102
}
330
1F
100
AcDbEntity
  8
1
  6
Continuous
 62
     7
100
AcDbLine
 10
997.9127919477993
 20
-596.7813628974312
 30
0.0
 11
997.9127919477993
 21
-590.3584146559984
 31
0.0
  0
LINE
  5
66
102
{ACAD_REACTORS
330
30C
102
}
330
1F
100
AcDbEntity
  8
1
  6
Continuous
 62
     7
100
AcDbLine
 10
997.2461252811327
 20
-593.589631968033
 30
0.0
 11
997.2461252811327
 21
-596.7813628974312
 31
0.0
  0
LINE
  5
67
102
{ACAD_REACTORS
330
30C
102
}
330
1F
100
AcDbEntity
  8
1
  6
Continuous
 62
     7
100
AcDbLine
 10
995.2461252811327
 20
-595.2420468954001
 30
0.0
 11
995.2461252811327
 21
-593.589631968033
 31
0.0
  0
LINE
  5
68
102
{ACAD_REACTORS
330
30C
102
}
330
1F
100
AcDbEntity
  8
1
  6
Continuous
 62
     7
100
AcDbLine
 10
994.5794586144659
 20
-593.589631968033
 30
0.0
 11
994.5794586144659
 21
-595.2420468954001
 31
0.0
  0
LINE
  5
69
102
{ACAD_REACTORS
330
30C
102
}
330
1F
100
AcDbEntity
  8
1
  6
Continuous
 62
     7
100
AcDbLine
 10
995.0738922980894
 20
-590.2259315497607
 30
0.0
 11
996.2461252811327
 21
-592.2562986346998
 31
0.0
  0
LINE
  5
6A
102
{ACAD_REACTORS
330
30C
102
}
330
1F
100
AcDbEntity
  8
1
  6
Continuous
 62
     7
100
AcDbLine
 10
994.5794586144659
 20
-593.589631968033
 30
0.0
 11
994.5794586144659
 21
-590.3584146559984
 31
0.0
  0
LINE
  5
6B
330
1F
100
AcDbEntity
  8
1
  6
Continuous
 62
     7
100
AcDbLine
 10
996.2461252811327
 20
-598.589631968033
 30
0.0
 11
987.8296900059911
 21
-593.7339962323745
 31
0.0
  0
LINE
  5
6C
330
1F
100
AcDbEntity
  8
1
  6
Continuous
 62
     7
100
AcDbLine
 10
1004.662560556274
 20
-593.7339962323745
 30
0.0
 11
996.2461252811327
 21
-598.589631968033
 31
0.0
  0
LINE
  5
6D
330
1F
100
AcDbEntity
  8
1
  6
Continuous
 62
     7
100
AcDbLine
 10
996.2461252811327
 20
-588.589631968033
 30
0.0
 11
1004.662560556274
 21
-593.4452677036917
 31
0.0
  0
LINE
  5
6E
330
1F
100
AcDbEntity
  8
1
  6
Continuous
 62
     7
100
AcDbLine
 10
987.8296900059911
 20
-593.4452677036917
 30
0.0
 11
996.2461252811327
 21
-588.589631968033
 31
0.0
  0
LINE
  5
6F
102
{ACAD_REACTORS
330
30C
102
}
330
1F
100
AcDbEntity
  8
1
  6
Continuous
 62
     7
100
AcDbLine
 10
995.2461252811327
 20
-591.8575811604642
 30
0.0
 11
995.2461252811327
 21
-593.589631968033
 31
0.0
  0
LINE
  5
70
102
{ACAD_REACTORS
330
30C
102
}
330
1F
100
AcDbEntity
  8
1
  6
Continuous
 62
     7
100
AcDbLine
 10
996.1017877138352
 20
-593.339631968033
 30
0.0
 11
995.2461252811327
 21
-591.8575811604642
 31
0.0
  0
LINE
  5
71
102
{ACAD_REACTORS
330
30C
102
}
330
1F
100
AcDbEntity
  8
1
  6
Continuous
 62
     7
100
AcDbLine
 10
997.2461252811327
 20
-591.8575811604642
 30
0.0
 11
996.39046284843
 21
-593.339631968033
 31
0.0
  0
LINE
  5
72
102
{ACAD_REACTORS
330
30C
102
}
330
1F
100
AcDbEntity
  8
1
  6
Continuous
 62
     7
100
AcDbLine
 10
997.2461252811327
 20
-593.589631968033
 30
0.0
 11
997.2461252811327
 21
-591.8575811604642
 31
0.0
  0
LINE
  5
73
102
{ACAD_REACTORS
330
309
102
}
330
1F
100
AcDbEntity
  8
1
  6
Continuous
 62
     7
100
AcDbLine
 10
998.579458614466
 20
-596.0121321282004
 30
0.0
 11
998.579458614466
 21
-591.1671318078656
 31
0.0
  0
LINE
  5
74
330
1F
100
AcDbEntity
  8
1
  6
Continuous
 62
     7
100
AcDbLine
 10
825.56982459239
 20
-314.0896319680329
 30
0.0
 11
825.56982459239
 21
-601.0896319680331
 31
0.0
  0
LINE
  5
75
330
1F
100
AcDbEntity
  8
1
  6
Continuous
 62
     7
100
AcDbLine
 10
1009.56982459239
 20
-314.0896319680329
 30
0.0
 11
825.56982459239
 21
-314.0896319680329
 31
0.0
  0
LINE
  5
76
330
1F
100
AcDbEntity
  8
1
  6
Continuous
 62
     7
100
AcDbLine
 10
1009.56982459239
 20
-601.0896319680331
 30
0.0
 11
1009.56982459239
 21
-314.0896319680329
 31
0.0
  0
LINE
  5
77
330
1F
100
AcDbEntity
  8
1
  6
Continuous
 62
     7
100
AcDbLine
 10
1014.56982459239
 20
-309.0896319680329
 30
0.0
 11
804.5698245923899
 21
-309.0896319680329
 31
0.0
  0
LINE
  5
78
330
1F
100
AcDbEntity
  8
1
  6
Continuous
 62
     7
100
AcDbLine
 10
804.5698245923899
 20
-309.0896319680329
 30
0.0
 11
804.5698245923899
 21
-606.089631968033
 31
0.0
  0
LINE
  5
79
330
1F
100
AcDbEntity
  8
1
  6
Continuous
 62
     7
100
AcDbLine
 10
804.5698245923899
 20
-606.089631968033
 30
0.0
 11
1014.56982459239
 21
-606.089631968033
 31
0.0
  0
LINE
  5
7A
330
1F
100
AcDbEntity
  8
1
  6
Continuous
 62
     7
100
AcDbLine
 10
1014.56982459239
 20
-606.089631968033
 30
0.0
 11
1014.56982459239
 21
-309.0896319680329
 31
0.0
  0
LINE
  5
7B
330
1F
100
AcDbEntity
  8
1
  6
Continuous
 62
     7
100
AcDbLine
 10
804.5698245923899
 20
-457.5896319680333
 30
0.0
 11
819.5698245923899
 21
-457.5896319680333
 31
0.0
  0
LINE
  5
7C
330
1F
100
AcDbEntity
  8
1
  6
Continuous
 62
     7
100
AcDbLine
 10
825.56982459239
 20
-593.589631968033
 30
0.0
 11
855.56982459239
 21
-593.589631968033
 31
0.0
  0
LINE
  5
7D
330
1F
100
AcDbEntity
  8
1
  6
Continuous
 62
     7
100
AcDbLine
 10
855.56982459239
 20
-586.089631968033
 30
0.0
 11
855.56982459239
 21
-601.089631968033
 31
0.0
  0
LINE
  5
7E
330
1F
100
AcDbEntity
  8
1
  6
Continuous
 62
     7
100
AcDbLine
 10
982.9224259698753
 20
-586.089631968033
 30
0.0
 11
982.9224259698753
 21
-601.089631968033
 31
0.0
  0
LINE
  5
7F
330
1F
100
AcDbEntity
  8
1
  6
Continuous
 62
     7
100
AcDbLine
 10
965.56982459239
 20
-586.089631968033
 30
0.0
 11
965.56982459239
 21
-601.089631968033
 31
0.0
  0
LINE
  5
80
330
1F
100
AcDbEntity
  8
1
  6
Continuous
 62
     7
100
AcDbLine
 10
825.56982459239
 20
-586.089631968033
 30
0.0
 11
825.56982459239
 21
-601.0896319680331
 31
0.0
  0
LINE
  5
81
330
1F
100
AcDbEntity
  8
0
  6
Continuous
 62
     7
100
AcDbLine
 10
891.5709099661632
 20
-399.1973863155124
 30
0.0
 11
864.1082299004551
 21
-399.1973863155124
 31
0.0
  0
LINE
  5
82
330
1F
100
AcDbEntity
  8
0
  6
Continuous
 62
     2
100
AcDbLine
 10
864.1082299004551
 20
-402.1973863155124
 30
0.0
 11
864.1082299004551
 21
-399.1973863155124
 31
0.0
  0
LINE
  5
83
330
1F
100
AcDbEntity
  8
0
  6
Continuous
 62
     2
100
AcDbLine
 10
891.5709099661632
 20
-402.1973863155124
 30
0.0
 11
864.1082299004551
 21
-402.1973863155124
 31
0.0
  0
LINE
  5
84
330
1F
100
AcDbEntity
  8
0
  6
Continuous
 62
     7
100
AcDbLine
 10
876.039569933309
 20
-410.7450552194111
 30
0.0
 11
876.039569933309
 21
-413.5365426266919
 31
0.0
  0
LINE
  5
85
330
1F
100
AcDbEntity
  8
0
  6
Continuous
 62
     2
100
AcDbLine
 10
863.572331515592
 20
-404.1973863155124
 30
0.0
 11
864.1082299004551
 21
-402.1973863155124
 31
0.0
  0
LINE
  5
86
330
1F
100
AcDbEntity
  8
0
  6
Continuous
 62
     2
100
AcDbLine
 10
861.2104524215871
 20
-401.4209291802049
 30
0.0
 11
864.1082299004551
 21
-402.1973863155124
 31
0.0
  0
LINE
  5
87
330
1F
100
AcDbEntity
  8
0
  6
Continuous
 62
     7
100
AcDbLine
 10
857.238145714242
 20
-419.1973863155124
 30
0.0
 11
860.989434408278
 21
-405.1973863155124
 31
0.0
  0
LINE
  5
88
330
1F
100
AcDbEntity
  8
0
  6
Continuous
 62
     7
100
AcDbLine
 10
892.106808351025
 20
-404.1973863155124
 30
0.0
 11
863.572331515592
 21
-404.1973863155124
 31
0.0
  0
LINE
  5
89
330
1F
100
AcDbEntity
  8
0
  6
Continuous
 62
     7
100
AcDbLine
 10
860.989434408278
 20
-405.1973863155124
 30
0.0
 11
894.6897054583391
 21
-405.1973863155124
 31
0.0
  0
LINE
  5
8A
330
1F
100
AcDbEntity
  8
0
  6
Continuous
 62
     2
100
AcDbLine
 10
894.4395699333091
 20
-433.9973863155124
 30
0.0
 11
900.839569933309
 21
-433.9973863155124
 31
0.0
  0
LINE
  5
8B
330
1F
100
AcDbEntity
  8
0
  6
Continuous
 62
     7
100
AcDbLine
 10
900.4997331046062
 20
-435.2641436328997
 30
0.0
 11
900.679406762012
 21
-435.4306289981253
 31
0.0
  0
LINE
  5
8C
330
1F
100
AcDbEntity
  8
0
  6
Continuous
 62
     2
100
AcDbLine
 10
894.4395699333091
 20
-435.2641436328997
 30
0.0
 11
900.4997331046062
 21
-435.2641436328997
 31
0.0
  0
LINE
  5
8D
330
1F
100
AcDbEntity
  8
0
  6
Continuous
 62
     2
100
AcDbLine
 10
894.4395699333091
 20
-435.4306289981253
 30
0.0
 11
900.679406762012
 21
-435.4306289981253
 31
0.0
  0
LINE
  5
8E
330
1F
100
AcDbEntity
  8
0
  6
Continuous
 62
     7
100
AcDbLine
 10
900.839569933309
 20
-439.3973863155125
 30
0.0
 11
900.839569933309
 21
-437.5973863155125
 31
0.0
  0
LINE
  5
8F
330
1F
100
AcDbEntity
  8
0
  6
Continuous
 62
     7
100
AcDbLine
 10
900.839569933309
 20
-435.7973863155125
 30
0.0
 11
900.839569933309
 21
-433.9973863155124
 31
0.0
  0
LINE
  5
90
330
1F
100
AcDbEntity
  8
0
  6
Continuous
 62
     7
100
AcDbLine
 10
900.839569933309
 20
-437.5973863155125
 30
0.0
 11
900.839569933309
 21
-435.7973863155125
 31
0.0
  0
LINE
  5
91
330
1F
100
AcDbEntity
  8
0
  6
Continuous
 62
     7
100
AcDbLine
 10
855.179406762012
 20
-434.5306289981252
 30
0.0
 11
854.9997331046062
 21
-434.3641436328996
 31
0.0
  0
LINE
  5
92
330
1F
100
AcDbEntity
  8
0
  6
Continuous
 62
     7
100
AcDbLine
 10
855.179406762012
 20
-435.2641436328997
 30
0.0
 11
854.9997331046062
 21
-435.4306289981253
 31
0.0
  0
LINE
  5
93
330
1F
100
AcDbEntity
  8
0
  6
Continuous
 62
     7
100
AcDbLine
 10
854.839569933309
 20
-433.9973863155124
 30
0.0
 11
854.839569933309
 21
-435.7973863155125
 31
0.0
  0
LINE
  5
94
330
1F
100
AcDbEntity
  8
0
  6
Continuous
 62
     2
100
AcDbLine
 10
894.4395699333091
 20
-434.5306289981252
 30
0.0
 11
894.4395699333091
 21
-434.3641436328996
 31
0.0
  0
LINE
  5
95
330
1F
100
AcDbEntity
  8
0
  6
Continuous
 62
     2
100
AcDbLine
 10
894.4395699333091
 20
-435.2641436328997
 30
0.0
 11
894.4395699333091
 21
-435.4306289981253
 31
0.0
  0
LINE
  5
96
330
1F
100
AcDbEntity
  8
0
  6
Continuous
 62
     2
100
AcDbLine
 10
894.4395699333091
 20
-435.2641436328997
 30
0.0
 11
894.4395699333091
 21
-434.5306289981252
 31
0.0
  0
LINE
  5
97
330
1F
100
AcDbEntity
  8
0
  6
Continuous
 62
     2
100
AcDbLine
 10
894.4395699333091
 20
-436.3306289981254
 30
0.0
 11
861.2395699333091
 21
-436.3306289981254
 31
0.0
  0
LINE
  5
98
330
1F
100
AcDbEntity
  8
0
  6
Continuous
 62
     2
100
AcDbLine
 10
861.2395699333091
 20
-436.3306289981254
 30
0.0
 11
861.2395699333091
 21
-436.1641436328996
 31
0.0
  0
LINE
  5
99
330
1F
100
AcDbEntity
  8
0
  6
Continuous
 62
     2
100
AcDbLine
 10
894.4395699333091
 20
-435.4306289981253
 30
0.0
 11
894.4395699333091
 21
-436.1641436328996
 31
0.0
  0
LINE
  5
9A
330
1F
100
AcDbEntity
  8
0
  6
Continuous
 62
     2
100
AcDbLine
 10
894.4395699333091
 20
-435.4306289981253
 30
0.0
 11
861.2395699333091
 21
-435.4306289981253
 31
0.0
  0
LINE
  5
9B
330
1F
100
AcDbEntity
  8
0
  6
Continuous
 62
     2
100
AcDbLine
 10
894.4395699333091
 20
-436.1641436328996
 30
0.0
 11
861.2395699333091
 21
-436.1641436328996
 31
0.0
  0
LINE
  5
9C
330
1F
100
AcDbEntity
  8
0
  6
Continuous
 62
     2
100
AcDbLine
 10
894.4395699333091
 20
-437.0641436328997
 30
0.0
 11
861.2395699333091
 21
-437.0641436328997
 31
0.0
  0
LINE
  5
9D
330
1F
100
AcDbEntity
  8
0
  6
Continuous
 62
     2
100
AcDbLine
 10
894.4395699333091
 20
-437.2306289981252
 30
0.0
 11
861.2395699333091
 21
-437.2306289981252
 31
0.0
  0
LINE
  5
9E
330
1F
100
AcDbEntity
  8
0
  6
Continuous
 62
     2
100
AcDbLine
 10
894.4395699333091
 20
-439.0306289981252
 30
0.0
 11
861.2395699333091
 21
-439.0306289981252
 31
0.0
  0
LINE
  5
9F
330
1F
100
AcDbEntity
  8
0
  6
Continuous
 62
     2
100
AcDbLine
 10
861.2395699333091
 20
-439.0306289981252
 30
0.0
 11
854.9997331046062
 21
-439.0306289981252
 31
0.0
  0
LINE
  5
A0
330
1F
100
AcDbEntity
  8
0
  6
Continuous
 62
     2
100
AcDbLine
 10
861.2395699333091
 20
-438.1306289981253
 30
0.0
 11
855.179406762012
 21
-438.1306289981253
 31
0.0
  0
LINE
  5
A1
330
1F
100
AcDbEntity
  8
0
  6
Continuous
 62
     2
100
AcDbLine
 10
861.2395699333091
 20
-438.8641436328996
 30
0.0
 11
855.179406762012
 21
-438.8641436328996
 31
0.0
  0
LINE
  5
A2
330
1F
100
AcDbEntity
  8
0
  6
Continuous
 62
     2
100
AcDbLine
 10
861.2395699333091
 20
-438.1306289981253
 30
0.0
 11
861.2395699333091
 21
-437.9641436328996
 31
0.0
  0
LINE
  5
A3
330
1F
100
AcDbEntity
  8
0
  6
Continuous
 62
     7
100
AcDbLine
 10
855.179406762012
 20
-438.8641436328996
 30
0.0
 11
854.9997331046062
 21
-439.0306289981252
 31
0.0
  0
LINE
  5
A4
330
1F
100
AcDbEntity
  8
0
  6
Continuous
 62
     7
100
AcDbLine
 10
855.179406762012
 20
-438.1306289981253
 30
0.0
 11
854.9997331046062
 21
-437.9641436328998
 31
0.0
  0
LINE
  5
A5
330
1F
100
AcDbEntity
  8
0
  6
Continuous
 62
     7
100
AcDbLine
 10
854.839569933309
 20
-437.5973863155125
 30
0.0
 11
854.839569933309
 21
-439.3973863155125
 31
0.0
  0
LINE
  5
A6
330
1F
100
AcDbEntity
  8
0
  6
Continuous
 62
     2
100
AcDbLine
 10
861.2395699333091
 20
-438.8641436328996
 30
0.0
 11
861.2395699333091
 21
-439.0306289981252
 31
0.0
  0
LINE
  5
A7
330
1F
100
AcDbEntity
  8
0
  6
Continuous
 62
     2
100
AcDbLine
 10
894.4395699333091
 20
-438.8641436328996
 30
0.0
 11
861.2395699333091
 21
-438.8641436328996
 31
0.0
  0
LINE
  5
A8
330
1F
100
AcDbEntity
  8
0
  6
Continuous
 62
     2
100
AcDbLine
 10
861.2395699333091
 20
-438.1306289981253
 30
0.0
 11
861.2395699333091
 21
-438.8641436328996
 31
0.0
  0
LINE
  5
A9
330
1F
100
AcDbEntity
  8
0
  6
Continuous
 62
     2
100
AcDbLine
 10
894.4395699333091
 20
-438.1306289981253
 30
0.0
 11
861.2395699333091
 21
-438.1306289981253
 31
0.0
  0
LINE
  5
AA
330
1F
100
AcDbEntity
  8
0
  6
Continuous
 62
     2
100
AcDbLine
 10
861.2395699333091
 20
-437.9641436328996
 30
0.0
 11
854.9997331046062
 21
-437.9641436328998
 31
0.0
  0
LINE
  5
AB
330
1F
100
AcDbEntity
  8
0
  6
Continuous
 62
     2
100
AcDbLine
 10
894.4395699333091
 20
-437.9641436328996
 30
0.0
 11
861.2395699333091
 21
-437.9641436328996
 31
0.0
  0
LINE
  5
AC
330
1F
100
AcDbEntity
  8
0
  6
Continuous
 62
     2
100
AcDbLine
 10
854.839569933309
 20
-433.9973863155124
 30
0.0
 11
861.2395699333091
 21
-433.9973863155124
 31
0.0
  0
LINE
  5
AD
330
1F
100
AcDbEntity
  8
0
  6
Continuous
 62
     2
100
AcDbLine
 10
861.2395699333091
 20
-433.9973863155124
 30
0.0
 11
894.4395699333091
 21
-433.9973863155124
 31
0.0
  0
LINE
  5
AE
330
1F
100
AcDbEntity
  8
0
  6
Continuous
 62
     2
100
AcDbLine
 10
861.2395699333091
 20
-434.5306289981252
 30
0.0
 11
855.179406762012
 21
-434.5306289981252
 31
0.0
  0
LINE
  5
AF
330
1F
100
AcDbEntity
  8
0
  6
Continuous
 62
     2
100
AcDbLine
 10
894.4395699333091
 20
-434.5306289981252
 30
0.0
 11
861.2395699333091
 21
-434.5306289981252
 31
0.0
  0
LINE
  5
B0
330
1F
100
AcDbEntity
  8
0
  6
Continuous
 62
     2
100
AcDbLine
 10
894.4395699333091
 20
-434.3641436328996
 30
0.0
 11
861.2395699333091
 21
-434.3641436328996
 31
0.0
  0
LINE
  5
B1
330
1F
100
AcDbEntity
  8
0
  6
Continuous
 62
     2
100
AcDbLine
 10
861.2395699333091
 20
-434.3641436328996
 30
0.0
 11
854.9997331046062
 21
-434.3641436328996
 31
0.0
  0
LINE
  5
B2
330
1F
100
AcDbEntity
  8
0
  6
Continuous
 62
     2
100
AcDbLine
 10
861.2395699333091
 20
-437.0641436328997
 30
0.0
 11
861.2395699333091
 21
-437.2306289981252
 31
0.0
  0
LINE
  5
B3
330
1F
100
AcDbEntity
  8
0
  6
Continuous
 62
     2
100
AcDbLine
 10
861.2395699333091
 20
-435.2641436328997
 30
0.0
 11
861.2395699333091
 21
-435.4306289981253
 31
0.0
  0
LINE
  5
B4
330
1F
100
AcDbEntity
  8
0
  6
Continuous
 62
     2
100
AcDbLine
 10
861.2395699333091
 20
-434.5306289981252
 30
0.0
 11
861.2395699333091
 21
-434.3641436328996
 31
0.0
  0
LINE
  5
B5
330
1F
100
AcDbEntity
  8
0
  6
Continuous
 62
     2
100
AcDbLine
 10
861.2395699333091
 20
-434.5306289981252
 30
0.0
 11
861.2395699333091
 21
-435.2641436328997
 31
0.0
  0
LINE
  5
B6
330
1F
100
AcDbEntity
  8
0
  6
Continuous
 62
     2
100
AcDbLine
 10
861.2395699333091
 20
-436.1641436328996
 30
0.0
 11
861.2395699333091
 21
-435.4306289981253
 31
0.0
  0
LINE
  5
B7
330
1F
100
AcDbEntity
  8
0
  6
Continuous
 62
     2
100
AcDbLine
 10
861.2395699333091
 20
-437.9641436328996
 30
0.0
 11
861.2395699333091
 21
-437.2306289981252
 31
0.0
  0
LINE
  5
B8
330
1F
100
AcDbEntity
  8
0
  6
Continuous
 62
     2
100
AcDbLine
 10
861.2395699333091
 20
-436.3306289981254
 30
0.0
 11
861.2395699333091
 21
-437.0641436328997
 31
0.0
  0
LINE
  5
B9
330
1F
100
AcDbEntity
  8
0
  6
Continuous
 62
     2
100
AcDbLine
 10
861.2395699333091
 20
-434.3641436328996
 30
0.0
 11
861.2395699333091
 21
-433.9973863155124
 31
0.0
  0
LINE
  5
BA
330
1F
100
AcDbEntity
  8
0
  6
Continuous
 62
     2
100
AcDbLine
 10
861.2395699333091
 20
-439.7641436328997
 30
0.0
 11
861.2395699333091
 21
-439.0306289981252
 31
0.0
  0
LINE
  5
BB
330
1F
100
AcDbEntity
  8
0
  6
Continuous
 62
     2
100
AcDbLine
 10
894.4395699333091
 20
-435.2641436328997
 30
0.0
 11
861.2395699333091
 21
-435.2641436328997
 31
0.0
  0
LINE
  5
BC
330
1F
100
AcDbEntity
  8
0
  6
Continuous
 62
     2
100
AcDbLine
 10
861.2395699333091
 20
-435.2641436328997
 30
0.0
 11
855.179406762012
 21
-435.2641436328997
 31
0.0
  0
LINE
  5
BD
330
1F
100
AcDbEntity
  8
0
  6
Continuous
 62
     2
100
AcDbLine
 10
861.2395699333091
 20
-435.4306289981253
 30
0.0
 11
854.9997331046062
 21
-435.4306289981253
 31
0.0
  0
LINE
  5
BE
330
1F
100
AcDbEntity
  8
0
  6
Continuous
 62
     7
100
AcDbLine
 10
855.179406762012
 20
-436.3306289981254
 30
0.0
 11
854.9997331046062
 21
-436.1641436328996
 31
0.0
  0
LINE
  5
BF
330
1F
100
AcDbEntity
  8
0
  6
Continuous
 62
     2
100
AcDbLine
 10
861.2395699333091
 20
-436.3306289981254
 30
0.0
 11
855.179406762012
 21
-436.3306289981254
 31
0.0
  0
LINE
  5
C0
330
1F
100
AcDbEntity
  8
0
  6
Continuous
 62
     2
100
AcDbLine
 10
861.2395699333091
 20
-437.2306289981252
 30
0.0
 11
854.9997331046062
 21
-437.2306289981252
 31
0.0
  0
LINE
  5
C1
330
1F
100
AcDbEntity
  8
0
  6
Continuous
 62
     2
100
AcDbLine
 10
861.2395699333091
 20
-437.0641436328997
 30
0.0
 11
855.179406762012
 21
-437.0641436328997
 31
0.0
  0
LINE
  5
C2
330
1F
100
AcDbEntity
  8
0
  6
Continuous
 62
     2
100
AcDbLine
 10
861.2395699333091
 20
-436.1641436328996
 30
0.0
 11
854.9997331046062
 21
-436.1641436328996
 31
0.0
  0
LINE
  5
C3
330
1F
100
AcDbEntity
  8
0
  6
Continuous
 62
     7
100
AcDbLine
 10
854.839569933309
 20
-435.7973863155125
 30
0.0
 11
854.839569933309
 21
-437.5973863155125
 31
0.0
  0
LINE
  5
C4
330
1F
100
AcDbEntity
  8
0
  6
Continuous
 62
     7
100
AcDbLine
 10
855.179406762012
 20
-437.0641436328997
 30
0.0
 11
854.9997331046062
 21
-437.2306289981252
 31
0.0
  0
LINE
  5
C5
330
1F
100
AcDbEntity
  8
0
  6
Continuous
 62
     2
100
AcDbLine
 10
894.4395699333091
 20
-441.1973863155124
 30
0.0
 11
861.2395699333091
 21
-441.1973863155124
 31
0.0
  0
LINE
  5
C6
330
1F
100
AcDbEntity
  8
0
  6
Continuous
 62
     2
100
AcDbLine
 10
894.4395699333091
 20
-440.8306289981254
 30
0.0
 11
861.2395699333091
 21
-440.8306289981254
 31
0.0
  0
LINE
  5
C7
330
1F
100
AcDbEntity
  8
0
  6
Continuous
 62
     2
100
AcDbLine
 10
894.4395699333091
 20
-440.6641436328996
 30
0.0
 11
861.2395699333091
 21
-440.6641436328996
 31
0.0
  0
LINE
  5
C8
330
1F
100
AcDbEntity
  8
0
  6
Continuous
 62
     2
100
AcDbLine
 10
894.4395699333091
 20
-439.9306289981253
 30
0.0
 11
861.2395699333091
 21
-439.9306289981253
 31
0.0
  0
LINE
  5
C9
330
1F
100
AcDbEntity
  8
0
  6
Continuous
 62
     2
100
AcDbLine
 10
894.4395699333091
 20
-439.7641436328997
 30
0.0
 11
861.2395699333091
 21
-439.7641436328997
 31
0.0
  0
LINE
  5
CA
330
1F
100
AcDbEntity
  8
0
  6
Continuous
 62
     7
100
AcDbLine
 10
854.839569933309
 20
-439.3973863155125
 30
0.0
 11
854.839569933309
 21
-441.1973863155124
 31
0.0
  0
LINE
  5
CB
330
1F
100
AcDbEntity
  8
0
  6
Continuous
 62
     7
100
AcDbLine
 10
876.2396809519131
 20
-413.8830168611114
 30
0.0
 11
877.539625442611
 21
-414.6329848365142
 31
0.0
  0
LINE
  5
CC
330
1F
100
AcDbEntity
  8
0
  6
Continuous
 62
     7
100
AcDbLine
 10
877.7395144240071
 20
-414.2865106020947
 30
0.0
 11
876.4395699333091
 21
-413.5365426266919
 31
0.0
  0
LINE
  5
CD
330
1F
100
AcDbEntity
  8
0
  6
Continuous
 62
     2
100
AcDbLine
 10
894.4395699333091
 20
-433.9973863155124
 30
0.0
 11
894.4395699333091
 21
-425.1973863155124
 31
0.0
  0
LINE
  5
CE
330
1F
100
AcDbEntity
  8
0
  6
Continuous
 62
     7
100
AcDbLine
 10
876.4395699333091
 20
-413.5365426266919
 30
0.0
 11
876.4395699333091
 21
-410.7450552194111
 31
0.0
  0
LINE
  5
CF
330
1F
100
AcDbEntity
  8
0
  6
Continuous
 62
     7
100
AcDbLine
 10
898.4409941523751
 20
-419.1973863155124
 30
0.0
 11
894.6897054583391
 21
-405.1973863155124
 31
0.0
  0
LINE
  5
D0
330
1F
100
AcDbEntity
  8
0
  6
Continuous
 62
     7
100
AcDbLine
 10
855.179406762012
 20
-439.9306289981253
 30
0.0
 11
854.9997331046062
 21
-439.7641436328997
 31
0.0
  0
LINE
  5
D1
330
1F
100
AcDbEntity
  8
0
  6
Continuous
 62
     2
100
AcDbLine
 10
861.2395699333091
 20
-440.8306289981254
 30
0.0
 11
854.999733104606
 21
-440.8306289981253
 31
0.0
  0
LINE
  5
D2
330
1F
100
AcDbEntity
  8
0
  6
Continuous
 62
     2
100
AcDbLine
 10
861.2395699333091
 20
-440.6641436328996
 30
0.0
 11
855.179406762012
 21
-440.6641436328996
 31
0.0
  0
LINE
  5
D3
330
1F
100
AcDbEntity
  8
0
  6
Continuous
 62
     7
100
AcDbLine
 10
855.179406762012
 20
-440.6641436328996
 30
0.0
 11
854.999733104606
 21
-440.8306289981253
 31
0.0
  0
LINE
  5
D4
330
1F
100
AcDbEntity
  8
0
  6
Continuous
 62
     2
100
AcDbLine
 10
861.2395699333091
 20
-439.9306289981253
 30
0.0
 11
855.179406762012
 21
-439.9306289981253
 31
0.0
  0
LINE
  5
D5
330
1F
100
AcDbEntity
  8
0
  6
Continuous
 62
     7
100
AcDbLine
 10
854.839569933309
 20
-448.1973863155124
 30
0.0
 11
854.839569933309
 21
-441.1973863155124
 31
0.0
  0
LINE
  5
D6
330
1F
100
AcDbEntity
  8
0
  6
Continuous
 62
     2
100
AcDbLine
 10
861.2395699333091
 20
-439.7641436328997
 30
0.0
 11
854.9997331046062
 21
-439.7641436328997
 31
0.0
  0
LINE
  5
D7
330
1F
100
AcDbEntity
  8
0
  6
Continuous
 62
     7
100
AcDbLine
 10
854.839569933309
 20
-448.1973863155124
 30
0.0
 11
853.839569933309
 21
-448.1973863155124
 31
0.0
  0
LINE
  5
D8
330
1F
100
AcDbEntity
  8
0
  6
Continuous
 62
     7
100
AcDbLine
 10
861.2395699333091
 20
-448.1973863155124
 30
0.0
 11
854.839569933309
 21
-448.1973863155124
 31
0.0
  0
LINE
  5
D9
330
1F
100
AcDbEntity
  8
0
  6
Continuous
 62
     2
100
AcDbLine
 10
861.2395699333091
 20
-441.1973863155124
 30
0.0
 11
854.839569933309
 21
-441.1973863155124
 31
0.0
  0
LINE
  5
DA
330
1F
100
AcDbEntity
  8
0
  6
Continuous
 62
     7
100
AcDbLine
 10
861.2395699333091
 20
-453.1973863155124
 30
0.0
 11
853.839569933309
 21
-453.1973863155124
 31
0.0
  0
LINE
  5
DB
330
1F
100
AcDbEntity
  8
0
  6
Continuous
 62
     7
100
AcDbLine
 10
853.839569933309
 20
-448.1973863155124
 30
0.0
 11
853.839569933309
 21
-453.1973863155124
 31
0.0
  0
LINE
  5
DC
330
1F
100
AcDbEntity
  8
0
  6
Continuous
 62
     2
100
AcDbLine
 10
861.2395699333091
 20
-441.1973863155124
 30
0.0
 11
861.2395699333091
 21
-440.8306289981254
 31
0.0
  0
LINE
  5
DD
330
1F
100
AcDbEntity
  8
0
  6
Continuous
 62
     2
100
AcDbLine
 10
861.2395699333091
 20
-440.6641436328996
 30
0.0
 11
861.2395699333091
 21
-440.8306289981254
 31
0.0
  0
LINE
  5
DE
330
1F
100
AcDbEntity
  8
0
  6
Continuous
 62
     2
100
AcDbLine
 10
861.2395699333091
 20
-439.9306289981253
 30
0.0
 11
861.2395699333091
 21
-440.6641436328996
 31
0.0
  0
LINE
  5
DF
330
1F
100
AcDbEntity
  8
0
  6
Continuous
 62
     2
100
AcDbLine
 10
861.2395699333091
 20
-439.9306289981253
 30
0.0
 11
861.2395699333091
 21
-439.7641436328997
 31
0.0
  0
LINE
  5
E0
330
1F
100
AcDbEntity
  8
0
  6
Continuous
 62
     7
100
AcDbLine
 10
879.839569933309
 20
-448.1973863155124
 30
0.0
 11
879.839569933309
 21
-444.6973863155124
 31
0.0
  0
LINE
  5
E1
330
1F
100
AcDbEntity
  8
0
  6
Continuous
 62
     7
100
AcDbLine
 10
875.839569933309
 20
-444.6973863155124
 30
0.0
 11
875.839569933309
 21
-448.1973863155124
 31
0.0
  0
LINE
  5
E2
330
1F
100
AcDbEntity
  8
0
  6
Continuous
 62
     7
100
AcDbLine
 10
875.839569933309
 20
-444.6973863155124
 30
0.0
 11
879.839569933309
 21
-444.6973863155124
 31
0.0
  0
LINE
  5
E3
330
1F
100
AcDbEntity
  8
0
  6
Continuous
 62
     7
100
AcDbLine
 10
874.3135573087751
 20
-448.1973863155124
 30
0.0
 11
875.424755367586
 21
-444.0503387027561
 31
0.0
  0
LINE
  5
E4
330
1F
100
AcDbEntity
  8
0
  6
Continuous
 62
     7
100
AcDbLine
 10
875.839569933309
 20
-448.1973863155124
 30
0.0
 11
879.839569933309
 21
-448.1973863155124
 31
0.0
  0
LINE
  5
E5
330
1F
100
AcDbEntity
  8
0
  6
Continuous
 62
     7
100
AcDbLine
 10
880.2543844990311
 20
-444.0503387027561
 30
0.0
 11
881.3655825578431
 21
-448.1973863155124
 31
0.0
  0
LINE
  5
E6
330
1F
100
AcDbEntity
  8
0
  6
Continuous
 62
     7
100
AcDbLine
 10
861.2395699333091
 20
-453.1973863155124
 30
0.0
 11
894.4395699333091
 21
-453.1973863155124
 31
0.0
  0
LINE
  5
E7
330
1F
100
AcDbEntity
  8
0
  6
Continuous
 62
     2
100
AcDbLine
 10
861.2395699333091
 20
-448.1973863155124
 30
0.0
 11
861.2395699333091
 21
-453.1973863155124
 31
0.0
  0
LINE
  5
E8
330
1F
100
AcDbEntity
  8
0
  6
Continuous
 62
     2
100
AcDbLine
 10
861.2395699333091
 20
-448.1973863155124
 30
0.0
 11
861.2395699333091
 21
-441.1973863155124
 31
0.0
  0
LINE
  5
E9
330
1F
100
AcDbEntity
  8
0
  6
Continuous
 62
     7
100
AcDbLine
 10
861.2395699333091
 20
-448.1973863155124
 30
0.0
 11
874.3135573087751
 21
-448.1973863155124
 31
0.0
  0
LINE
  5
EA
330
1F
100
AcDbEntity
  8
0
  6
Continuous
 62
     2
100
AcDbLine
 10
894.4395699333091
 20
-434.3641436328996
 30
0.0
 11
900.679406762012
 21
-434.3641436328996
 31
0.0
  0
LINE
  5
EB
330
1F
100
AcDbEntity
  8
0
  6
Continuous
 62
     2
100
AcDbLine
 10
894.4395699333091
 20
-433.9973863155124
 30
0.0
 11
894.4395699333091
 21
-434.3641436328996
 31
0.0
  0
LINE
  5
EC
330
1F
100
AcDbEntity
  8
0
  6
Continuous
 62
     7
100
AcDbLine
 10
861.2395699333091
 20
-425.1973863155124
 30
0.0
 11
894.4395699333091
 21
-425.1973863155124
 31
0.0
  0
LINE
  5
ED
330
1F
100
AcDbEntity
  8
0
  6
Continuous
 62
     2
100
AcDbLine
 10
894.4395699333091
 20
-438.8641436328996
 30
0.0
 11
894.4395699333091
 21
-439.0306289981252
 31
0.0
  0
LINE
  5
EE
330
1F
100
AcDbEntity
  8
0
  6
Continuous
 62
     2
100
AcDbLine
 10
894.4395699333091
 20
-439.0306289981252
 30
0.0
 11
894.4395699333091
 21
-439.7641436328997
 31
0.0
  0
LINE
  5
EF
330
1F
100
AcDbEntity
  8
0
  6
Continuous
 62
     7
100
AcDbLine
 10
894.4395699333091
 20
-425.1973863155124
 30
0.0
 11
897.519382038134
 21
-425.1973863155124
 31
0.0
  0
LINE
  5
F0
330
1F
100
AcDbEntity
  8
0
  6
Continuous
 62
     2
100
AcDbLine
 10
894.4395699333091
 20
-438.1306289981253
 30
0.0
 11
894.4395699333091
 21
-437.9641436328996
 31
0.0
  0
LINE
  5
F1
330
1F
100
AcDbEntity
  8
0
  6
Continuous
 62
     2
100
AcDbLine
 10
894.4395699333091
 20
-438.1306289981253
 30
0.0
 11
900.4997331046062
 21
-438.1306289981253
 31
0.0
  0
LINE
  5
F2
330
1F
100
AcDbEntity
  8
0
  6
Continuous
 62
     7
100
AcDbLine
 10
900.4997331046062
 20
-438.1306289981253
 30
0.0
 11
900.679406762012
 21
-437.9641436328996
 31
0.0
  0
LINE
  5
F3
330
1F
100
AcDbEntity
  8
0
  6
Continuous
 62
     2
100
AcDbLine
 10
894.4395699333091
 20
-438.8641436328996
 30
0.0
 11
900.4997331046062
 21
-438.8641436328996
 31
0.0
  0
LINE
  5
F4
330
1F
100
AcDbEntity
  8
0
  6
Continuous
 62
     2
100
AcDbLine
 10
894.4395699333091
 20
-439.0306289981252
 30
0.0
 11
900.679406762012
 21
-439.0306289981252
 31
0.0
  0
LINE
  5
F5
330
1F
100
AcDbEntity
  8
0
  6
Continuous
 62
     7
100
AcDbLine
 10
900.4997331046062
 20
-438.8641436328996
 30
0.0
 11
900.679406762012
 21
-439.0306289981252
 31
0.0
  0
LINE
  5
F6
330
1F
100
AcDbEntity
  8
0
  6
Continuous
 62
     2
100
AcDbLine
 10
894.4395699333091
 20
-438.8641436328996
 30
0.0
 11
894.4395699333091
 21
-438.1306289981253
 31
0.0
  0
LINE
  5
F7
330
1F
100
AcDbEntity
  8
0
  6
Continuous
 62
     2
100
AcDbLine
 10
894.4395699333091
 20
-436.3306289981254
 30
0.0
 11
894.4395699333091
 21
-436.1641436328996
 31
0.0
  0
LINE
  5
F8
330
1F
100
AcDbEntity
  8
0
  6
Continuous
 62
     2
100
AcDbLine
 10
894.4395699333091
 20
-437.0641436328997
 30
0.0
 11
894.4395699333091
 21
-437.2306289981252
 31
0.0
  0
LINE
  5
F9
330
1F
100
AcDbEntity
  8
0
  6
Continuous
 62
     2
100
AcDbLine
 10
894.4395699333091
 20
-437.0641436328997
 30
0.0
 11
894.4395699333091
 21
-436.3306289981254
 31
0.0
  0
LINE
  5
FA
330
1F
100
AcDbEntity
  8
0
  6
Continuous
 62
     2
100
AcDbLine
 10
894.4395699333091
 20
-436.3306289981254
 30
0.0
 11
900.4997331046062
 21
-436.3306289981254
 31
0.0
  0
LINE
  5
FB
330
1F
100
AcDbEntity
  8
0
  6
Continuous
 62
     2
100
AcDbLine
 10
894.4395699333091
 20
-436.1641436328996
 30
0.0
 11
900.679406762012
 21
-436.1641436328996
 31
0.0
  0
LINE
  5
FC
330
1F
100
AcDbEntity
  8
0
  6
Continuous
 62
     2
100
AcDbLine
 10
894.4395699333091
 20
-437.0641436328997
 30
0.0
 11
900.4997331046062
 21
-437.0641436328997
 31
0.0
  0
LINE
  5
FD
330
1F
100
AcDbEntity
  8
0
  6
Continuous
 62
     2
100
AcDbLine
 10
894.4395699333091
 20
-437.2306289981252
 30
0.0
 11
894.4395699333091
 21
-437.9641436328996
 31
0.0
  0
LINE
  5
FE
330
1F
100
AcDbEntity
  8
0
  6
Continuous
 62
     2
100
AcDbLine
 10
894.4395699333091
 20
-437.2306289981252
 30
0.0
 11
900.679406762012
 21
-437.2306289981252
 31
0.0
  0
LINE
  5
FF
330
1F
100
AcDbEntity
  8
0
  6
Continuous
 62
     2
100
AcDbLine
 10
894.4395699333091
 20
-437.9641436328996
 30
0.0
 11
900.679406762012
 21
-437.9641436328996
 31
0.0
  0
LINE
  5
100
330
1F
100
AcDbEntity
  8
0
  6
Continuous
 62
     7
100
AcDbLine
 10
900.4997331046062
 20
-436.3306289981254
 30
0.0
 11
900.679406762012
 21
-436.1641436328996
 31
0.0
  0
LINE
  5
101
330
1F
100
AcDbEntity
  8
0
  6
Continuous
 62
     7
100
AcDbLine
 10
900.839569933309
 20
-425.1973863155124
 30
0.0
 11
900.839569933309
 21
-433.9973863155124
 31
0.0
  0
LINE
  5
102
330
1F
100
AcDbEntity
  8
0
  6
Continuous
 62
     7
100
AcDbLine
 10
900.4997331046062
 20
-437.0641436328997
 30
0.0
 11
900.679406762012
 21
-437.2306289981252
 31
0.0
  0
LINE
  5
103
330
1F
100
AcDbEntity
  8
0
  6
Continuous
 62
     2
100
AcDbLine
 10
894.4395699333091
 20
-434.5306289981252
 30
0.0
 11
900.4997331046062
 21
-434.5306289981252
 31
0.0
  0
LINE
  5
104
330
1F
100
AcDbEntity
  8
0
  6
Continuous
 62
     7
100
AcDbLine
 10
900.4997331046062
 20
-434.5306289981252
 30
0.0
 11
900.679406762012
 21
-434.3641436328996
 31
0.0
  0
LINE
  5
105
330
1F
100
AcDbEntity
  8
0
  6
Continuous
 62
     7
100
AcDbLine
 10
894.4395699333091
 20
-453.1973863155124
 30
0.0
 11
901.839569933309
 21
-453.1973863155124
 31
0.0
  0
LINE
  5
106
330
1F
100
AcDbEntity
  8
0
  6
Continuous
 62
     7
100
AcDbLine
 10
900.839569933309
 20
-448.1973863155124
 30
0.0
 11
901.839569933309
 21
-448.1973863155124
 31
0.0
  0
LINE
  5
107
330
1F
100
AcDbEntity
  8
0
  6
Continuous
 62
     7
100
AcDbLine
 10
901.839569933309
 20
-453.1973863155124
 30
0.0
 11
901.839569933309
 21
-448.1973863155124
 31
0.0
  0
LINE
  5
108
330
1F
100
AcDbEntity
  8
0
  6
Continuous
 62
     7
100
AcDbLine
 10
900.839569933309
 20
-441.1973863155124
 30
0.0
 11
900.839569933309
 21
-439.3973863155125
 31
0.0
  0
LINE
  5
109
330
1F
100
AcDbEntity
  8
0
  6
Continuous
 62
     7
100
AcDbLine
 10
881.3655825578431
 20
-448.1973863155124
 30
0.0
 11
894.4395699333091
 21
-448.1973863155124
 31
0.0
  0
LINE
  5
10A
330
1F
100
AcDbEntity
  8
0
  6
Continuous
 62
     2
100
AcDbLine
 10
894.4395699333091
 20
-439.7641436328997
 30
0.0
 11
900.679406762012
 21
-439.7641436328997
 31
0.0
  0
LINE
  5
10B
330
1F
100
AcDbEntity
  8
0
  6
Continuous
 62
     2
100
AcDbLine
 10
894.4395699333091
 20
-439.9306289981253
 30
0.0
 11
900.4997331046062
 21
-439.9306289981253
 31
0.0
  0
LINE
  5
10C
330
1F
100
AcDbEntity
  8
0
  6
Continuous
 62
     2
100
AcDbLine
 10
894.4395699333091
 20
-440.6641436328996
 30
0.0
 11
900.4997331046062
 21
-440.6641436328996
 31
0.0
  0
LINE
  5
10D
330
1F
100
AcDbEntity
  8
0
  6
Continuous
 62
     2
100
AcDbLine
 10
894.4395699333091
 20
-440.8306289981254
 30
0.0
 11
900.679406762012
 21
-440.8306289981254
 31
0.0
  0
LINE
  5
10E
330
1F
100
AcDbEntity
  8
0
  6
Continuous
 62
     2
100
AcDbLine
 10
894.4395699333091
 20
-440.8306289981254
 30
0.0
 11
894.4395699333091
 21
-441.1973863155124
 31
0.0
  0
LINE
  5
10F
330
1F
100
AcDbEntity
  8
0
  6
Continuous
 62
     2
100
AcDbLine
 10
894.4395699333091
 20
-440.6641436328996
 30
0.0
 11
894.4395699333091
 21
-440.8306289981254
 31
0.0
  0
LINE
  5
110
330
1F
100
AcDbEntity
  8
0
  6
Continuous
 62
     2
100
AcDbLine
 10
894.4395699333091
 20
-439.9306289981253
 30
0.0
 11
894.4395699333091
 21
-439.7641436328997
 31
0.0
  0
LINE
  5
111
330
1F
100
AcDbEntity
  8
0
  6
Continuous
 62
     2
100
AcDbLine
 10
894.4395699333091
 20
-440.6641436328996
 30
0.0
 11
894.4395699333091
 21
-439.9306289981253
 31
0.0
  0
LINE
  5
112
330
1F
100
AcDbEntity
  8
0
  6
Continuous
 62
     7
100
AcDbLine
 10
894.4395699333091
 20
-448.1973863155124
 30
0.0
 11
900.839569933309
 21
-448.1973863155124
 31
0.0
  0
LINE
  5
113
330
1F
100
AcDbEntity
  8
0
  6
Continuous
 62
     2
100
AcDbLine
 10
900.839569933309
 20
-441.1973863155124
 30
0.0
 11
894.4395699333091
 21
-441.1973863155124
 31
0.0
  0
LINE
  5
114
330
1F
100
AcDbEntity
  8
0
  6
Continuous
 62
     2
100
AcDbLine
 10
894.4395699333091
 20
-453.1973863155124
 30
0.0
 11
894.4395699333091
 21
-448.1973863155124
 31
0.0
  0
LINE
  5
115
330
1F
100
AcDbEntity
  8
0
  6
Continuous
 62
     2
100
AcDbLine
 10
894.4395699333091
 20
-441.1973863155124
 30
0.0
 11
894.4395699333091
 21
-448.1973863155124
 31
0.0
  0
LINE
  5
116
330
1F
100
AcDbEntity
  8
0
  6
Continuous
 62
     7
100
AcDbLine
 10
900.839569933309
 20
-441.1973863155124
 30
0.0
 11
900.839569933309
 21
-448.1973863155124
 31
0.0
  0
LINE
  5
117
330
1F
100
AcDbEntity
  8
0
  6
Continuous
 62
     7
100
AcDbLine
 10
900.4997331046062
 20
-439.9306289981253
 30
0.0
 11
900.679406762012
 21
-439.7641436328997
 31
0.0
  0
LINE
  5
118
330
1F
100
AcDbEntity
  8
0
  6
Continuous
 62
     7
100
AcDbLine
 10
900.4997331046062
 20
-440.6641436328996
 30
0.0
 11
900.679406762012
 21
-440.8306289981254
 31
0.0
  0
LINE
  5
119
330
1F
100
AcDbEntity
  8
0
  6
Continuous
 62
     2
100
AcDbLine
 10
858.1597578284842
 20
-424.3973863155125
 30
0.0
 11
897.519382038134
 21
-424.3973863155125
 31
0.0
  0
LINE
  5
11A
330
1F
100
AcDbEntity
  8
0
  6
Continuous
 62
     7
100
AcDbLine
 10
900.5697302960672
 20
-424.1903310794305
 30
0.0
 11
900.0718206184462
 21
-422.3321068649682
 31
0.0
  0
LINE
  5
11B
330
1F
100
AcDbEntity
  8
0
  6
Continuous
 62
     7
100
AcDbLine
 10
859.2851444366951
 20
-420.1973863155124
 30
0.0
 11
896.3939954299232
 21
-420.1973863155124
 31
0.0
  0
LINE
  5
11C
330
1F
100
AcDbEntity
  8
0
  6
Continuous
 62
     7
100
AcDbLine
 10
897.519382038134
 20
-425.1973863155124
 30
0.0
 11
899.7969896350361
 21
-425.1973863155124
 31
0.0
  0
LINE
  5
11D
330
1F
100
AcDbEntity
  8
0
  6
Continuous
 62
     2
100
AcDbLine
 10
897.519382038134
 20
-424.3973863155125
 30
0.0
 11
896.3939954299232
 21
-420.1973863155124
 31
0.0
  0
LINE
  5
11E
330
1F
100
AcDbEntity
  8
0
  6
Continuous
 62
     7
100
AcDbLine
 10
854.839569933309
 20
-425.1973863155124
 30
0.0
 11
855.1094095705502
 21
-424.1903310794305
 31
0.0
  0
LINE
  5
11F
330
1F
100
AcDbEntity
  8
0
  6
Continuous
 62
     7
100
AcDbLine
 10
900.5697302960672
 20
-424.1903310794305
 30
0.0
 11
900.839569933309
 21
-425.1973863155124
 31
0.0
  0
LINE
  5
120
330
1F
100
AcDbEntity
  8
0
  6
Continuous
 62
     7
100
AcDbLine
 10
877.2395699333091
 20
-413.1900042719319
 30
0.0
 11
877.2395699333091
 21
-411.1593248309703
 31
0.0
  0
LINE
  5
121
330
1F
100
AcDbEntity
  8
0
  6
Continuous
 62
     7
100
AcDbLine
 10
876.839569933309
 20
-410.2598249282908
 30
0.0
 11
876.839569933309
 21
-413.1900042719319
 31
0.0
  0
LINE
  5
122
330
1F
100
AcDbEntity
  8
0
  6
Continuous
 62
     7
100
AcDbLine
 10
879.2395699333091
 20
-410.7450552194111
 30
0.0
 11
879.2395699333091
 21
-413.6520554116121
 31
0.0
  0
LINE
  5
123
330
1F
100
AcDbEntity
  8
0
  6
Continuous
 62
     7
100
AcDbLine
 10
878.8395699333081
 20
-414.1135938731504
 30
0.0
 11
878.839569933309
 21
-410.2598249282908
 31
0.0
  0
LINE
  5
124
330
1F
100
AcDbEntity
  8
0
  6
Continuous
 62
     7
100
AcDbLine
 10
877.2395699333091
 20
-411.1593248309703
 30
0.0
 11
877.7529673929301
 21
-412.0485553155115
 31
0.0
  0
LINE
  5
125
330
1F
100
AcDbEntity
  8
0
  6
Continuous
 62
     7
100
AcDbLine
 10
878.542909723135
 20
-410.1803350645482
 30
0.0
 11
877.839569933309
 21
-411.3985553155117
 31
0.0
  0
LINE
  5
126
330
1F
100
AcDbEntity
  8
0
  6
Continuous
 62
     7
100
AcDbLine
 10
877.839569933309
 20
-411.3985553155117
 30
0.0
 11
877.1362301434832
 21
-410.1803350645482
 31
0.0
  0
LINE
  5
127
330
1F
100
AcDbEntity
  8
0
  6
Continuous
 62
     7
100
AcDbLine
 10
878.4395699333091
 20
-411.1593248309703
 30
0.0
 11
878.4395699333091
 21
-414.1135938731504
 31
0.0
  0
LINE
  5
128
330
1F
100
AcDbEntity
  8
0
  6
Continuous
 62
     7
100
AcDbLine
 10
879.6395699333092
 20
-412.3985553155117
 30
0.0
 11
880.2395699333091
 21
-412.3985553155117
 31
0.0
  0
LINE
  5
129
330
1F
100
AcDbEntity
  8
0
  6
Continuous
 62
     7
100
AcDbLine
 10
879.6395699333092
 20
-413.3057733959229
 30
0.0
 11
879.6395699333092
 21
-412.3985553155117
 31
0.0
  0
LINE
  5
12A
330
1F
100
AcDbEntity
  8
0
  6
Continuous
 62
     7
100
AcDbLine
 10
880.1396254426112
 20
-413.017279832864
 30
0.0
 11
879.6395699333092
 21
-413.3057733959229
 31
0.0
  0
LINE
  5
12B
330
1F
100
AcDbEntity
  8
0
  6
Continuous
 62
     7
100
AcDbLine
 10
879.5395144240061
 20
-413.8252925288218
 30
0.0
 11
880.339514424007
 21
-413.3637540672833
 31
0.0
  0
LINE
  5
12C
330
1F
100
AcDbEntity
  8
0
  6
Continuous
 62
     7
100
AcDbLine
 10
882.8894310983932
 20
-412.2851738741165
 30
0.0
 11
877.839569933309
 21
-415.1985553155116
 31
0.0
  0
LINE
  5
12D
330
1F
100
AcDbEntity
  8
0
  6
Continuous
 62
     7
100
AcDbLine
 10
877.839569933309
 20
-415.4294527158163
 30
0.0
 11
882.9893755890911
 21
-412.4584109913262
 31
0.0
  0
LINE
  5
12E
330
1F
100
AcDbEntity
  8
0
  6
Continuous
 62
     7
100
AcDbLine
 10
877.9261724736872
 20
-412.0485553155115
 30
0.0
 11
878.4395699333091
 21
-411.1593248309703
 31
0.0
  0
LINE
  5
12F
330
1F
100
AcDbEntity
  8
0
  6
Continuous
 62
     7
100
AcDbLine
 10
879.6395699333092
 20
-411.0913372351004
 30
0.0
 11
880.1396254426112
 21
-411.3798307981592
 31
0.0
  0
LINE
  5
130
330
1F
100
AcDbEntity
  8
0
  6
Continuous
 62
     7
100
AcDbLine
 10
879.6395699333092
 20
-411.9985553155116
 30
0.0
 11
879.6395699333092
 21
-411.0913372351004
 31
0.0
  0
LINE
  5
131
330
1F
100
AcDbEntity
  8
0
  6
Continuous
 62
     7
100
AcDbLine
 10
880.2395699333091
 20
-411.9985553155116
 30
0.0
 11
879.6395699333092
 21
-411.9985553155116
 31
0.0
  0
LINE
  5
132
330
1F
100
AcDbEntity
  8
0
  6
Continuous
 62
     7
100
AcDbLine
 10
880.339514424007
 20
-411.0333565637397
 30
0.0
 11
879.5395144240061
 21
-410.5718181022014
 31
0.0
  0
LINE
  5
133
330
1F
100
AcDbEntity
  8
0
  6
Continuous
 62
     7
100
AcDbLine
 10
877.839569933309
 20
-409.1985553155116
 30
0.0
 11
882.8894310983932
 21
-412.1119367569067
 31
0.0
  0
LINE
  5
134
330
1F
100
AcDbEntity
  8
0
  6
Continuous
 62
     7
100
AcDbLine
 10
882.9893755890911
 20
-411.938699639697
 30
0.0
 11
877.839569933309
 21
-408.9676579152069
 31
0.0
  0
LINE
  5
135
330
1F
100
AcDbEntity
  8
0
  6
Continuous
 62
     2
100
AcDbLine
 10
891.5709099661632
 20
-402.1973863155124
 30
0.0
 11
891.5709099661632
 21
-399.1973863155124
 31
0.0
  0
LINE
  5
136
330
1F
100
AcDbEntity
  8
0
  6
Continuous
 62
     2
100
AcDbLine
 10
892.106808351025
 20
-404.1973863155124
 30
0.0
 11
891.5709099661632
 21
-402.1973863155124
 31
0.0
  0
LINE
  5
137
330
1F
100
AcDbEntity
  8
0
  6
Continuous
 62
     2
100
AcDbLine
 10
891.5709099661632
 20
-402.1973863155124
 30
0.0
 11
894.46868744503
 21
-401.4209291802049
 31
0.0
  0
LINE
  5
138
330
1F
100
AcDbEntity
  8
0
  6
Continuous
 62
     7
100
AcDbLine
 10
894.4769511492946
 20
-401.7281011692296
 30
0.0
 11
895.9949227449408
 21
-401.3213619060428
 31
0.0
  0
LINE
  5
139
330
1F
100
AcDbEntity
  8
0
  6
Continuous
 62
     7
100
AcDbLine
 10
904.9253400018391
 20
-397.9449514425944
 30
0.0
 11
905.1712180946865
 21
-398.862580977569
 31
0.0
  0
LINE
  5
13A
330
1F
100
AcDbEntity
  8
0
  6
Continuous
 62
     7
100
AcDbLine
 10
858.1597578284842
 20
-425.1973863155124
 30
0.0
 11
861.2395699333091
 21
-425.1973863155124
 31
0.0
  0
LINE
  5
13B
330
1F
100
AcDbEntity
  8
0
  6
Continuous
 62
     7
100
AcDbLine
 10
855.8821502315822
 20
-425.1973863155124
 30
0.0
 11
858.1597578284842
 21
-425.1973863155124
 31
0.0
  0
LINE
  5
13C
330
1F
100
AcDbEntity
  8
0
  6
Continuous
 62
     7
100
AcDbLine
 10
854.839569933309
 20
-433.9973863155124
 30
0.0
 11
854.839569933309
 21
-425.1973863155124
 31
0.0
  0
LINE
  5
13D
330
1F
100
AcDbEntity
  8
0
  6
Continuous
 62
     2
100
AcDbLine
 10
861.2395699333091
 20
-433.9973863155124
 30
0.0
 11
861.2395699333091
 21
-425.1973863155124
 31
0.0
  0
LINE
  5
13E
330
1F
100
AcDbEntity
  8
0
  6
Continuous
 62
     7
100
AcDbLine
 10
875.6395699333092
 20
-413.1905169500735
 30
0.0
 11
875.6395699333092
 21
-411.2065936809495
 31
0.0
  0
LINE
  5
13F
330
1F
100
AcDbEntity
  8
0
  6
Continuous
 62
     7
100
AcDbLine
 10
875.2395699333091
 20
-411.2065936809495
 30
0.0
 11
875.2395699333091
 21
-413.1905169500735
 31
0.0
  0
LINE
  5
140
330
1F
100
AcDbEntity
  8
0
  6
Continuous
 62
     7
100
AcDbLine
 10
872.7897087682242
 20
-412.1119367569067
 30
0.0
 11
877.839569933309
 21
-409.1985553155116
 31
0.0
  0
LINE
  5
141
330
1F
100
AcDbEntity
  8
0
  6
Continuous
 62
     2
100
AcDbLine
 10
858.1597578284842
 20
-424.3973863155125
 30
0.0
 11
859.2851444366951
 21
-420.1973863155124
 31
0.0
  0
LINE
  5
142
330
1F
100
AcDbEntity
  8
0
  6
Continuous
 62
     7
100
AcDbLine
 10
877.839569933309
 20
-415.1985553155116
 30
0.0
 11
872.7897087682242
 21
-412.2851738741165
 31
0.0
  0
LINE
  5
143
330
1F
100
AcDbEntity
  8
0
  6
Continuous
 62
     7
100
AcDbLine
 10
872.689764277526
 20
-412.4584109913262
 30
0.0
 11
877.839569933309
 21
-415.4294527158163
 31
0.0
  0
LINE
  5
144
330
1F
100
AcDbEntity
  8
0
  6
Continuous
 62
     7
100
AcDbLine
 10
877.839569933309
 20
-408.9676579152069
 30
0.0
 11
872.689764277526
 21
-411.938699639697
 31
0.0
  0
LINE
  5
145
330
1F
100
AcDbEntity
  8
0
  6
Continuous
 62
     7
100
AcDbLine
 10
857.238145714242
 20
-419.1973863155124
 30
0.0
 11
898.4409941523751
 21
-419.1973863155124
 31
0.0
  0
LINE
  5
146
330
1F
100
AcDbEntity
  8
0
  6
Continuous
 62
     7
100
AcDbLine
 10
855.1094095705502
 20
-424.1903310794305
 30
0.0
 11
861.2104524215871
 21
-401.4209291802049
 31
0.0
  0
LINE
  5
147
330
1F
100
AcDbEntity
  8
0
  6
Continuous
 62
     7
100
AcDbLine
 10
977.1395699333092
 20
-444.6973863155124
 30
0.0
 11
977.1395699333092
 21
-442.6973863155124
 31
0.0
  0
LINE
  5
148
330
1F
100
AcDbEntity
  8
0
  6
Continuous
 62
     2
100
AcDbLine
 10
973.9895699333091
 20
-444.6973863155124
 30
0.0
 11
977.1395699333092
 21
-444.6973863155124
 31
0.0
  0
LINE
  5
149
330
1F
100
AcDbEntity
  8
0
  6
Continuous
 62
     7
100
AcDbLine
 10
973.1145699333091
 20
-448.1973863155124
 30
0.0
 11
973.9895699333091
 21
-448.1973863155124
 31
0.0
  0
LINE
  5
14A
330
1F
100
AcDbEntity
  8
0
  6
Continuous
 62
     7
100
AcDbLine
 10
973.9895699333091
 20
-448.1973863155124
 30
0.0
 11
973.9895699333091
 21
-444.6973863155124
 31
0.0
  0
LINE
  5
14B
330
1F
100
AcDbEntity
  8
0
  6
Continuous
 62
     7
100
AcDbLine
 10
973.1145699333091
 20
-448.1973863155124
 30
0.0
 11
973.1145699333091
 21
-444.0503387027561
 31
0.0
  0
LINE
  5
14C
330
1F
100
AcDbEntity
  8
0
  6
Continuous
 62
     2
100
AcDbLine
 10
973.9895699333091
 20
-444.0503387027561
 30
0.0
 11
973.1145699333091
 21
-444.0503387027561
 31
0.0
  0
LINE
  5
14D
330
1F
100
AcDbEntity
  8
0
  6
Continuous
 62
     7
100
AcDbLine
 10
952.8895699333094
 20
-448.1973863155124
 30
0.0
 11
966.589569933309
 21
-448.1973863155124
 31
0.0
  0
LINE
  5
14E
330
1F
100
AcDbEntity
  8
0
  6
Continuous
 62
     7
100
AcDbLine
 10
966.714569933309
 20
-448.1973863155124
 30
0.0
 11
973.1145699333091
 21
-448.1973863155124
 31
0.0
  0
LINE
  5
14F
330
1F
100
AcDbEntity
  8
0
  6
Continuous
 62
     7
100
AcDbLine
 10
977.1395699333092
 20
-444.6973863155124
 30
0.0
 11
973.9895699333091
 21
-448.1973863155124
 31
0.0
  0
LINE
  5
150
330
1F
100
AcDbEntity
  8
0
  6
Continuous
 62
     7
100
AcDbLine
 10
973.9895699333091
 20
-442.6973863155124
 30
0.0
 11
977.1395699333092
 21
-442.6973863155124
 31
0.0
  0
LINE
  5
151
330
1F
100
AcDbEntity
  8
0
  6
Continuous
 62
     7
100
AcDbLine
 10
945.4895699333093
 20
-448.1973863155124
 30
0.0
 11
946.3645699333093
 21
-448.1973863155124
 31
0.0
  0
LINE
  5
152
330
1F
100
AcDbEntity
  8
0
  6
Continuous
 62
     7
100
AcDbLine
 10
946.3645699333093
 20
-448.1973863155124
 30
0.0
 11
952.7645699333094
 21
-448.1973863155124
 31
0.0
  0
LINE
  5
153
330
1F
100
AcDbEntity
  8
0
  6
Continuous
 62
     2
100
AcDbLine
 10
952.7645699333094
 20
-441.1973863155124
 30
0.0
 11
946.3645699333093
 21
-441.1973863155124
 31
0.0
  0
LINE
  5
154
330
1F
100
AcDbEntity
  8
0
  6
Continuous
 62
     7
100
AcDbLine
 10
948.4895699333093
 20
-425.1973863155124
 30
0.0
 11
949.2634195310064
 21
-425.1973863155124
 31
0.0
  0
LINE
  5
155
330
1F
100
AcDbEntity
  8
0
  6
Continuous
 62
     2
100
AcDbLine
 10
948.4895699333093
 20
-424.1903310794305
 30
0.0
 11
950.9257839406315
 21
-424.1903310794305
 31
0.0
  0
LINE
  5
156
330
1F
100
AcDbEntity
  8
0
  6
Continuous
 62
     2
100
AcDbLine
 10
952.8895699333094
 20
-448.1973863155124
 30
0.0
 11
952.8895699333094
 21
-453.1973863155124
 31
0.0
  0
LINE
  5
157
330
1F
100
AcDbEntity
  8
0
  6
Continuous
 62
     2
100
AcDbLine
 10
959.7395699333096
 20
-401.4209291802049
 30
0.0
 11
948.4895699333093
 21
-401.4209291802049
 31
0.0
  0
LINE
  5
158
330
1F
100
AcDbEntity
  8
0
  6
Continuous
 62
     7
100
AcDbLine
 10
954.5210142346515
 20
-399.1973863155124
 30
0.0
 11
948.4895699333093
 21
-399.1973863155124
 31
0.0
  0
LINE
  5
159
330
1F
100
AcDbEntity
  8
0
  6
Continuous
 62
     2
100
AcDbLine
 10
966.714569933309
 20
-425.1973863155124
 30
0.0
 11
966.714569933309
 21
-433.9973863155124
 31
0.0
  0
LINE
  5
15A
330
1F
100
AcDbEntity
  8
0
  6
Continuous
 62
     7
100
AcDbLine
 10
966.714569933309
 20
-425.1973863155124
 30
0.0
 11
952.7645699333094
 21
-425.1973863155124
 31
0.0
  0
LINE
  5
15B
330
1F
100
AcDbEntity
  8
0
  6
Continuous
 62
     2
100
AcDbLine
 10
966.714569933309
 20
-433.9973863155124
 30
0.0
 11
961.2395699333091
 21
-433.9973863155124
 31
0.0
  0
LINE
  5
15C
330
1F
100
AcDbEntity
  8
0
  6
Continuous
 62
     2
100
AcDbLine
 10
966.714569933309
 20
-434.5306289981252
 30
0.0
 11
961.2395699333091
 21
-434.5306289981252
 31
0.0
  0
LINE
  5
15D
330
1F
100
AcDbEntity
  8
0
  6
Continuous
 62
     2
100
AcDbLine
 10
966.714569933309
 20
-435.2641436328997
 30
0.0
 11
961.2395699333091
 21
-435.2641436328997
 31
0.0
  0
LINE
  5
15E
330
1F
100
AcDbEntity
  8
0
  6
Continuous
 62
     2
100
AcDbLine
 10
966.714569933309
 20
-435.4306289981253
 30
0.0
 11
961.2395699333091
 21
-435.4306289981253
 31
0.0
  0
LINE
  5
15F
330
1F
100
AcDbEntity
  8
0
  6
Continuous
 62
     2
100
AcDbLine
 10
966.714569933309
 20
-436.1641436328996
 30
0.0
 11
961.2395699333091
 21
-436.1641436328996
 31
0.0
  0
LINE
  5
160
330
1F
100
AcDbEntity
  8
0
  6
Continuous
 62
     2
100
AcDbLine
 10
966.714569933309
 20
-437.2306289981252
 30
0.0
 11
961.2395699333091
 21
-437.2306289981252
 31
0.0
  0
LINE
  5
161
330
1F
100
AcDbEntity
  8
0
  6
Continuous
 62
     2
100
AcDbLine
 10
966.714569933309
 20
-440.8306289981254
 30
0.0
 11
961.2395699333091
 21
-440.8306289981254
 31
0.0
  0
LINE
  5
162
330
1F
100
AcDbEntity
  8
0
  6
Continuous
 62
     2
100
AcDbLine
 10
966.714569933309
 20
-439.9306289981253
 30
0.0
 11
961.2395699333091
 21
-439.9306289981253
 31
0.0
  0
LINE
  5
163
330
1F
100
AcDbEntity
  8
0
  6
Continuous
 62
     2
100
AcDbLine
 10
966.714569933309
 20
-440.6641436328996
 30
0.0
 11
961.2395699333091
 21
-440.6641436328996
 31
0.0
  0
LINE
  5
164
330
1F
100
AcDbEntity
  8
0
  6
Continuous
 62
     2
100
AcDbLine
 10
966.714569933309
 20
-439.0306289981252
 30
0.0
 11
961.2395699333091
 21
-439.0306289981252
 31
0.0
  0
LINE
  5
165
330
1F
100
AcDbEntity
  8
0
  6
Continuous
 62
     2
100
AcDbLine
 10
966.714569933309
 20
-439.7641436328997
 30
0.0
 11
961.2395699333091
 21
-439.7641436328997
 31
0.0
  0
LINE
  5
166
330
1F
100
AcDbEntity
  8
0
  6
Continuous
 62
     2
100
AcDbLine
 10
966.714569933309
 20
-438.8641436328996
 30
0.0
 11
961.2395699333091
 21
-438.8641436328996
 31
0.0
  0
LINE
  5
167
330
1F
100
AcDbEntity
  8
0
  6
Continuous
 62
     2
100
AcDbLine
 10
966.714569933309
 20
-441.1973863155124
 30
0.0
 11
961.2395699333091
 21
-441.1973863155124
 31
0.0
  0
LINE
  5
168
330
1F
100
AcDbEntity
  8
0
  6
Continuous
 62
     2
100
AcDbLine
 10
966.714569933309
 20
-438.1306289981253
 30
0.0
 11
961.2395699333091
 21
-438.1306289981253
 31
0.0
  0
LINE
  5
169
330
1F
100
AcDbEntity
  8
0
  6
Continuous
 62
     2
100
AcDbLine
 10
966.714569933309
 20
-437.9641436328996
 30
0.0
 11
961.2395699333091
 21
-437.9641436328996
 31
0.0
  0
LINE
  5
16A
330
1F
100
AcDbEntity
  8
0
  6
Continuous
 62
     2
100
AcDbLine
 10
966.714569933309
 20
-437.0641436328997
 30
0.0
 11
961.2395699333091
 21
-437.0641436328997
 31
0.0
  0
LINE
  5
16B
330
1F
100
AcDbEntity
  8
0
  6
Continuous
 62
     2
100
AcDbLine
 10
966.714569933309
 20
-436.3306289981254
 30
0.0
 11
961.2395699333091
 21
-436.3306289981254
 31
0.0
  0
LINE
  5
16C
330
1F
100
AcDbEntity
  8
0
  6
Continuous
 62
     2
100
AcDbLine
 10
966.714569933309
 20
-434.3641436328996
 30
0.0
 11
961.2395699333091
 21
-434.3641436328996
 31
0.0
  0
LINE
  5
16D
330
1F
100
AcDbEntity
  8
0
  6
Continuous
 62
     7
100
AcDbLine
 10
966.589569933309
 20
-448.1973863155124
 30
0.0
 11
966.714569933309
 21
-448.1973863155124
 31
0.0
  0
LINE
  5
16E
330
1F
100
AcDbEntity
  8
0
  6
Continuous
 62
     2
100
AcDbLine
 10
952.7645699333094
 20
-425.1973863155124
 30
0.0
 11
952.7645699333094
 21
-433.9973863155124
 31
0.0
  0
LINE
  5
16F
330
1F
100
AcDbEntity
  8
0
  6
Continuous
 62
     2
100
AcDbLine
 10
966.714569933309
 20
-435.2641436328997
 30
0.0
 11
966.714569933309
 21
-434.5306289981252
 31
0.0
  0
LINE
  5
170
330
1F
100
AcDbEntity
  8
0
  6
Continuous
 62
     2
100
AcDbLine
 10
966.714569933309
 20
-439.0306289981252
 30
0.0
 11
966.714569933309
 21
-439.7641436328997
 31
0.0
  0
LINE
  5
171
330
1F
100
AcDbEntity
  8
0
  6
Continuous
 62
     2
100
AcDbLine
 10
966.714569933309
 20
-435.4306289981253
 30
0.0
 11
966.714569933309
 21
-436.1641436328996
 31
0.0
  0
LINE
  5
172
330
1F
100
AcDbEntity
  8
0
  6
Continuous
 62
     2
100
AcDbLine
 10
966.714569933309
 20
-437.0641436328997
 30
0.0
 11
966.714569933309
 21
-436.3306289981254
 31
0.0
  0
LINE
  5
173
330
1F
100
AcDbEntity
  8
0
  6
Continuous
 62
     2
100
AcDbLine
 10
966.714569933309
 20
-437.2306289981252
 30
0.0
 11
966.714569933309
 21
-437.9641436328996
 31
0.0
  0
LINE
  5
174
330
1F
100
AcDbEntity
  8
0
  6
Continuous
 62
     2
100
AcDbLine
 10
966.714569933309
 20
-439.9306289981253
 30
0.0
 11
966.714569933309
 21
-440.6641436328996
 31
0.0
  0
LINE
  5
175
330
1F
100
AcDbEntity
  8
0
  6
Continuous
 62
     2
100
AcDbLine
 10
966.714569933309
 20
-434.3641436328996
 30
0.0
 11
966.714569933309
 21
-433.9973863155124
 31
0.0
  0
LINE
  5
176
330
1F
100
AcDbEntity
  8
0
  6
Continuous
 62
     2
100
AcDbLine
 10
966.714569933309
 20
-441.1973863155124
 30
0.0
 11
966.714569933309
 21
-440.8306289981254
 31
0.0
  0
LINE
  5
177
330
1F
100
AcDbEntity
  8
0
  6
Continuous
 62
     2
100
AcDbLine
 10
966.714569933309
 20
-436.1641436328996
 30
0.0
 11
966.714569933309
 21
-436.3306289981254
 31
0.0
  0
LINE
  5
178
330
1F
100
AcDbEntity
  8
0
  6
Continuous
 62
     2
100
AcDbLine
 10
966.714569933309
 20
-437.9641436328996
 30
0.0
 11
966.714569933309
 21
-438.1306289981253
 31
0.0
  0
LINE
  5
179
330
1F
100
AcDbEntity
  8
0
  6
Continuous
 62
     2
100
AcDbLine
 10
966.714569933309
 20
-438.8641436328996
 30
0.0
 11
966.714569933309
 21
-439.0306289981252
 31
0.0
  0
LINE
  5
17A
330
1F
100
AcDbEntity
  8
0
  6
Continuous
 62
     2
100
AcDbLine
 10
966.714569933309
 20
-439.7641436328997
 30
0.0
 11
966.714569933309
 21
-439.9306289981253
 31
0.0
  0
LINE
  5
17B
330
1F
100
AcDbEntity
  8
0
  6
Continuous
 62
     2
100
AcDbLine
 10
966.714569933309
 20
-434.3641436328996
 30
0.0
 11
966.714569933309
 21
-434.5306289981252
 31
0.0
  0
LINE
  5
17C
330
1F
100
AcDbEntity
  8
0
  6
Continuous
 62
     2
100
AcDbLine
 10
966.714569933309
 20
-440.8306289981254
 30
0.0
 11
966.714569933309
 21
-440.6641436328996
 31
0.0
  0
LINE
  5
17D
330
1F
100
AcDbEntity
  8
0
  6
Continuous
 62
     2
100
AcDbLine
 10
966.714569933309
 20
-448.1973863155124
 30
0.0
 11
966.714569933309
 21
-441.1973863155124
 31
0.0
  0
LINE
  5
17E
330
1F
100
AcDbEntity
  8
0
  6
Continuous
 62
     2
100
AcDbLine
 10
966.714569933309
 20
-435.4306289981253
 30
0.0
 11
966.714569933309
 21
-435.2641436328997
 31
0.0
  0
LINE
  5
17F
330
1F
100
AcDbEntity
  8
0
  6
Continuous
 62
     2
100
AcDbLine
 10
966.714569933309
 20
-437.0641436328997
 30
0.0
 11
966.714569933309
 21
-437.2306289981252
 31
0.0
  0
LINE
  5
180
330
1F
100
AcDbEntity
  8
0
  6
Continuous
 62
     2
100
AcDbLine
 10
966.714569933309
 20
-438.8641436328996
 30
0.0
 11
966.714569933309
 21
-438.1306289981253
 31
0.0
  0
LINE
  5
181
330
1F
100
AcDbEntity
  8
0
  6
Continuous
 62
     7
100
AcDbLine
 10
958.2395699333091
 20
-439.7641436328997
 30
0.0
 11
958.2395699333091
 21
-439.0306289981252
 31
0.0
  0
LINE
  5
182
330
1F
100
AcDbEntity
  8
0
  6
Continuous
 62
     7
100
AcDbLine
 10
958.2395699333091
 20
-439.9306289981253
 30
0.0
 11
958.2395699333091
 21
-439.7641436328997
 31
0.0
  0
LINE
  5
183
330
1F
100
AcDbEntity
  8
0
  6
Continuous
 62
     2
100
AcDbLine
 10
958.2395699333091
 20
-439.7641436328997
 30
0.0
 11
952.7645699333094
 21
-439.7641436328997
 31
0.0
  0
LINE
  5
184
330
1F
100
AcDbEntity
  8
0
  6
Continuous
 62
     2
100
AcDbLine
 10
958.2395699333091
 20
-439.0306289981252
 30
0.0
 11
952.7645699333094
 21
-439.0306289981252
 31
0.0
  0
LINE
  5
185
330
1F
100
AcDbEntity
  8
0
  6
Continuous
 62
     2
100
AcDbLine
 10
958.2395699333091
 20
-439.9306289981253
 30
0.0
 11
952.7645699333094
 21
-439.9306289981253
 31
0.0
  0
LINE
  5
186
330
1F
100
AcDbEntity
  8
0
  6
Continuous
 62
     7
100
AcDbLine
 10
961.2395699333091
 20
-436.1641436328996
 30
0.0
 11
961.2395699333091
 21
-436.3306289981254
 31
0.0
  0
LINE
  5
187
330
1F
100
AcDbEntity
  8
0
  6
Continuous
 62
     7
100
AcDbLine
 10
961.2395699333091
 20
-435.4306289981253
 30
0.0
 11
961.2395699333091
 21
-436.1641436328996
 31
0.0
  0
LINE
  5
188
330
1F
100
AcDbEntity
  8
0
  6
Continuous
 62
     7
100
AcDbLine
 10
961.2395699333091
 20
-437.0641436328997
 30
0.0
 11
961.2395699333091
 21
-437.2306289981252
 31
0.0
  0
LINE
  5
189
330
1F
100
AcDbEntity
  8
0
  6
Continuous
 62
     7
100
AcDbLine
 10
961.2395699333091
 20
-437.2306289981252
 30
0.0
 11
961.2395699333091
 21
-437.9641436328996
 31
0.0
  0
LINE
  5
18A
330
1F
100
AcDbEntity
  8
0
  6
Continuous
 62
     7
100
AcDbLine
 10
958.2395699333091
 20
-436.3306289981254
 30
0.0
 11
958.2395699333091
 21
-436.1641436328996
 31
0.0
  0
LINE
  5
18B
330
1F
100
AcDbEntity
  8
0
  6
Continuous
 62
     7
100
AcDbLine
 10
958.2395699333091
 20
-437.9641436328996
 30
0.0
 11
958.2395699333091
 21
-437.2306289981252
 31
0.0
  0
LINE
  5
18C
330
1F
100
AcDbEntity
  8
0
  6
Continuous
 62
     7
100
AcDbLine
 10
958.2395699333091
 20
-437.2306289981252
 30
0.0
 11
958.2395699333091
 21
-437.0641436328997
 31
0.0
  0
LINE
  5
18D
330
1F
100
AcDbEntity
  8
0
  6
Continuous
 62
     7
100
AcDbLine
 10
958.2395699333091
 20
-437.0641436328997
 30
0.0
 11
958.2395699333091
 21
-436.3306289981254
 31
0.0
  0
LINE
  5
18E
330
1F
100
AcDbEntity
  8
0
  6
Continuous
 62
     2
100
AcDbLine
 10
958.2395699333091
 20
-437.0641436328997
 30
0.0
 11
952.7645699333094
 21
-437.0641436328997
 31
0.0
  0
LINE
  5
18F
330
1F
100
AcDbEntity
  8
0
  6
Continuous
 62
     2
100
AcDbLine
 10
958.2395699333091
 20
-436.3306289981254
 30
0.0
 11
952.7645699333094
 21
-436.3306289981254
 31
0.0
  0
LINE
  5
190
330
1F
100
AcDbEntity
  8
0
  6
Continuous
 62
     2
100
AcDbLine
 10
958.2395699333091
 20
-437.2306289981252
 30
0.0
 11
952.7645699333094
 21
-437.2306289981252
 31
0.0
  0
LINE
  5
191
330
1F
100
AcDbEntity
  8
0
  6
Continuous
 62
     7
100
AcDbLine
 10
961.2395699333091
 20
-436.3306289981254
 30
0.0
 11
961.2395699333091
 21
-437.0641436328997
 31
0.0
  0
LINE
  5
192
330
1F
100
AcDbEntity
  8
0
  6
Continuous
 62
     2
100
AcDbLine
 10
952.7645699333094
 20
-440.6641436328996
 30
0.0
 11
952.7645699333094
 21
-440.8306289981254
 31
0.0
  0
LINE
  5
193
330
1F
100
AcDbEntity
  8
0
  6
Continuous
 62
     2
100
AcDbLine
 10
952.7645699333094
 20
-438.8641436328996
 30
0.0
 11
952.7645699333094
 21
-439.0306289981252
 31
0.0
  0
LINE
  5
194
330
1F
100
AcDbEntity
  8
0
  6
Continuous
 62
     2
100
AcDbLine
 10
952.7645699333094
 20
-439.7641436328997
 30
0.0
 11
952.7645699333094
 21
-439.9306289981253
 31
0.0
  0
LINE
  5
195
330
1F
100
AcDbEntity
  8
0
  6
Continuous
 62
     2
100
AcDbLine
 10
952.7645699333094
 20
-438.8641436328996
 30
0.0
 11
952.7645699333094
 21
-438.1306289981253
 31
0.0
  0
LINE
  5
196
330
1F
100
AcDbEntity
  8
0
  6
Continuous
 62
     2
100
AcDbLine
 10
952.7645699333094
 20
-440.6641436328996
 30
0.0
 11
952.7645699333094
 21
-439.9306289981253
 31
0.0
  0
LINE
  5
197
330
1F
100
AcDbEntity
  8
0
  6
Continuous
 62
     2
100
AcDbLine
 10
952.7645699333094
 20
-439.0306289981252
 30
0.0
 11
952.7645699333094
 21
-439.7641436328997
 31
0.0
  0
LINE
  5
198
330
1F
100
AcDbEntity
  8
0
  6
Continuous
 62
     7
100
AcDbLine
 10
961.2395699333091
 20
-439.7641436328997
 30
0.0
 11
961.2395699333091
 21
-439.9306289981253
 31
0.0
  0
LINE
  5
199
330
1F
100
AcDbEntity
  8
0
  6
Continuous
 62
     7
100
AcDbLine
 10
961.2395699333091
 20
-440.6641436328996
 30
0.0
 11
961.2395699333091
 21
-440.8306289981254
 31
0.0
  0
LINE
  5
19A
330
1F
100
AcDbEntity
  8
0
  6
Continuous
 62
     7
100
AcDbLine
 10
961.2395699333091
 20
-440.8306289981254
 30
0.0
 11
961.2395699333091
 21
-441.1973863155124
 31
0.0
  0
LINE
  5
19B
330
1F
100
AcDbEntity
  8
0
  6
Continuous
 62
     7
100
AcDbLine
 10
961.2395699333091
 20
-439.0306289981252
 30
0.0
 11
961.2395699333091
 21
-439.7641436328997
 31
0.0
  0
LINE
  5
19C
330
1F
100
AcDbEntity
  8
0
  6
Continuous
 62
     7
100
AcDbLine
 10
958.2395699333091
 20
-440.6641436328996
 30
0.0
 11
958.2395699333091
 21
-439.9306289981253
 31
0.0
  0
LINE
  5
19D
330
1F
100
AcDbEntity
  8
0
  6
Continuous
 62
     7
100
AcDbLine
 10
958.2395699333091
 20
-441.1973863155124
 30
0.0
 11
958.2395699333091
 21
-440.8306289981254
 31
0.0
  0
LINE
  5
19E
330
1F
100
AcDbEntity
  8
0
  6
Continuous
 62
     7
100
AcDbLine
 10
958.2395699333091
 20
-440.8306289981254
 30
0.0
 11
958.2395699333091
 21
-440.6641436328996
 31
0.0
  0
LINE
  5
19F
330
1F
100
AcDbEntity
  8
0
  6
Continuous
 62
     2
100
AcDbLine
 10
958.2395699333091
 20
-440.8306289981254
 30
0.0
 11
952.7645699333094
 21
-440.8306289981254
 31
0.0
  0
LINE
  5
1A0
330
1F
100
AcDbEntity
  8
0
  6
Continuous
 62
     2
100
AcDbLine
 10
958.2395699333091
 20
-440.6641436328996
 30
0.0
 11
952.7645699333094
 21
-440.6641436328996
 31
0.0
  0
LINE
  5
1A1
330
1F
100
AcDbEntity
  8
0
  6
Continuous
 62
     7
100
AcDbLine
 10
961.2395699333091
 20
-439.9306289981253
 30
0.0
 11
961.2395699333091
 21
-440.6641436328996
 31
0.0
  0
LINE
  5
1A2
330
1F
100
AcDbEntity
  8
0
  6
Continuous
 62
     2
100
AcDbLine
 10
952.7645699333094
 20
-433.9973863155124
 30
0.0
 11
952.7645699333094
 21
-434.3641436328996
 31
0.0
  0
LINE
  5
1A3
330
1F
100
AcDbEntity
  8
0
  6
Continuous
 62
     2
100
AcDbLine
 10
952.7645699333094
 20
-437.9641436328996
 30
0.0
 11
952.7645699333094
 21
-438.1306289981253
 31
0.0
  0
LINE
  5
1A4
330
1F
100
AcDbEntity
  8
0
  6
Continuous
 62
     2
100
AcDbLine
 10
952.7645699333094
 20
-436.1641436328996
 30
0.0
 11
952.7645699333094
 21
-436.3306289981254
 31
0.0
  0
LINE
  5
1A5
330
1F
100
AcDbEntity
  8
0
  6
Continuous
 62
     2
100
AcDbLine
 10
952.7645699333094
 20
-437.2306289981252
 30
0.0
 11
952.7645699333094
 21
-437.9641436328996
 31
0.0
  0
LINE
  5
1A6
330
1F
100
AcDbEntity
  8
0
  6
Continuous
 62
     2
100
AcDbLine
 10
952.7645699333094
 20
-437.0641436328997
 30
0.0
 11
952.7645699333094
 21
-437.2306289981252
 31
0.0
  0
LINE
  5
1A7
330
1F
100
AcDbEntity
  8
0
  6
Continuous
 62
     2
100
AcDbLine
 10
952.7645699333094
 20
-435.4306289981253
 30
0.0
 11
952.7645699333094
 21
-436.1641436328996
 31
0.0
  0
LINE
  5
1A8
330
1F
100
AcDbEntity
  8
0
  6
Continuous
 62
     2
100
AcDbLine
 10
952.7645699333094
 20
-435.2641436328997
 30
0.0
 11
952.7645699333094
 21
-435.4306289981253
 31
0.0
  0
LINE
  5
1A9
330
1F
100
AcDbEntity
  8
0
  6
Continuous
 62
     2
100
AcDbLine
 10
952.7645699333094
 20
-435.2641436328997
 30
0.0
 11
952.7645699333094
 21
-434.5306289981252
 31
0.0
  0
LINE
  5
1AA
330
1F
100
AcDbEntity
  8
0
  6
Continuous
 62
     2
100
AcDbLine
 10
952.7645699333094
 20
-434.3641436328996
 30
0.0
 11
952.7645699333094
 21
-434.5306289981252
 31
0.0
  0
LINE
  5
1AB
330
1F
100
AcDbEntity
  8
0
  6
Continuous
 62
     2
100
AcDbLine
 10
952.7645699333094
 20
-437.0641436328997
 30
0.0
 11
952.7645699333094
 21
-436.3306289981254
 31
0.0
  0
LINE
  5
1AC
330
1F
100
AcDbEntity
  8
0
  6
Continuous
 62
     7
100
AcDbLine
 10
961.2395699333091
 20
-434.3641436328996
 30
0.0
 11
961.2395699333091
 21
-434.5306289981252
 31
0.0
  0
LINE
  5
1AD
330
1F
100
AcDbEntity
  8
0
  6
Continuous
 62
     7
100
AcDbLine
 10
961.2395699333091
 20
-435.2641436328997
 30
0.0
 11
961.2395699333091
 21
-435.4306289981253
 31
0.0
  0
LINE
  5
1AE
330
1F
100
AcDbEntity
  8
0
  6
Continuous
 62
     7
100
AcDbLine
 10
961.2395699333091
 20
-433.9973863155124
 30
0.0
 11
961.2395699333091
 21
-434.3641436328996
 31
0.0
  0
LINE
  5
1AF
330
1F
100
AcDbEntity
  8
0
  6
Continuous
 62
     7
100
AcDbLine
 10
958.2395699333091
 20
-434.3641436328996
 30
0.0
 11
958.2395699333091
 21
-433.9973863155124
 31
0.0
  0
LINE
  5
1B0
330
1F
100
AcDbEntity
  8
0
  6
Continuous
 62
     7
100
AcDbLine
 10
958.2395699333091
 20
-434.5306289981252
 30
0.0
 11
958.2395699333091
 21
-434.3641436328996
 31
0.0
  0
LINE
  5
1B1
330
1F
100
AcDbEntity
  8
0
  6
Continuous
 62
     7
100
AcDbLine
 10
958.2395699333091
 20
-435.2641436328997
 30
0.0
 11
958.2395699333091
 21
-434.5306289981252
 31
0.0
  0
LINE
  5
1B2
330
1F
100
AcDbEntity
  8
0
  6
Continuous
 62
     7
100
AcDbLine
 10
958.2395699333091
 20
-435.4306289981253
 30
0.0
 11
958.2395699333091
 21
-435.2641436328997
 31
0.0
  0
LINE
  5
1B3
330
1F
100
AcDbEntity
  8
0
  6
Continuous
 62
     7
100
AcDbLine
 10
958.2395699333091
 20
-436.1641436328996
 30
0.0
 11
958.2395699333091
 21
-435.4306289981253
 31
0.0
  0
LINE
  5
1B4
330
1F
100
AcDbEntity
  8
0
  6
Continuous
 62
     2
100
AcDbLine
 10
958.2395699333091
 20
-436.1641436328996
 30
0.0
 11
952.7645699333094
 21
-436.1641436328996
 31
0.0
  0
LINE
  5
1B5
330
1F
100
AcDbEntity
  8
0
  6
Continuous
 62
     2
100
AcDbLine
 10
958.2395699333091
 20
-435.4306289981253
 30
0.0
 11
952.7645699333094
 21
-435.4306289981253
 31
0.0
  0
LINE
  5
1B6
330
1F
100
AcDbEntity
  8
0
  6
Continuous
 62
     2
100
AcDbLine
 10
958.2395699333091
 20
-435.2641436328997
 30
0.0
 11
952.7645699333094
 21
-435.2641436328997
 31
0.0
  0
LINE
  5
1B7
330
1F
100
AcDbEntity
  8
0
  6
Continuous
 62
     2
100
AcDbLine
 10
958.2395699333091
 20
-434.5306289981252
 30
0.0
 11
952.7645699333094
 21
-434.5306289981252
 31
0.0
  0
LINE
  5
1B8
330
1F
100
AcDbEntity
  8
0
  6
Continuous
 62
     2
100
AcDbLine
 10
958.2395699333091
 20
-434.3641436328996
 30
0.0
 11
952.7645699333094
 21
-434.3641436328996
 31
0.0
  0
LINE
  5
1B9
330
1F
100
AcDbEntity
  8
0
  6
Continuous
 62
     2
100
AcDbLine
 10
958.2395699333091
 20
-433.9973863155124
 30
0.0
 11
952.7645699333094
 21
-433.9973863155124
 31
0.0
  0
LINE
  5
1BA
330
1F
100
AcDbEntity
  8
0
  6
Continuous
 62
     7
100
AcDbLine
 10
961.2395699333091
 20
-434.5306289981252
 30
0.0
 11
961.2395699333091
 21
-435.2641436328997
 31
0.0
  0
LINE
  5
1BB
330
1F
100
AcDbEntity
  8
0
  6
Continuous
 62
     2
100
AcDbLine
 10
952.7645699333094
 20
-440.8306289981254
 30
0.0
 11
952.7645699333094
 21
-441.1973863155124
 31
0.0
  0
LINE
  5
1BC
330
1F
100
AcDbEntity
  8
0
  6
Continuous
 62
     2
100
AcDbLine
 10
952.7645699333094
 20
-448.1973863155124
 30
0.0
 11
952.7645699333094
 21
-441.1973863155124
 31
0.0
  0
LINE
  5
1BD
330
1F
100
AcDbEntity
  8
0
  6
Continuous
 62
     7
100
AcDbLine
 10
952.7645699333094
 20
-448.1973863155124
 30
0.0
 11
952.8895699333094
 21
-448.1973863155124
 31
0.0
  0
LINE
  5
1BE
330
1F
100
AcDbEntity
  8
0
  6
Continuous
 62
     7
100
AcDbLine
 10
961.2395699333091
 20
-438.8641436328996
 30
0.0
 11
961.2395699333091
 21
-439.0306289981252
 31
0.0
  0
LINE
  5
1BF
330
1F
100
AcDbEntity
  8
0
  6
Continuous
 62
     7
100
AcDbLine
 10
961.2395699333091
 20
-437.9641436328996
 30
0.0
 11
961.2395699333091
 21
-438.1306289981253
 31
0.0
  0
LINE
  5
1C0
330
1F
100
AcDbEntity
  8
0
  6
Continuous
 62
     7
100
AcDbLine
 10
958.2395699333091
 20
-439.0306289981252
 30
0.0
 11
958.2395699333091
 21
-438.8641436328996
 31
0.0
  0
LINE
  5
1C1
330
1F
100
AcDbEntity
  8
0
  6
Continuous
 62
     7
100
AcDbLine
 10
958.2395699333091
 20
-438.1306289981253
 30
0.0
 11
958.2395699333091
 21
-437.9641436328996
 31
0.0
  0
LINE
  5
1C2
330
1F
100
AcDbEntity
  8
0
  6
Continuous
 62
     7
100
AcDbLine
 10
958.2395699333091
 20
-438.8641436328996
 30
0.0
 11
958.2395699333091
 21
-438.1306289981253
 31
0.0
  0
LINE
  5
1C3
330
1F
100
AcDbEntity
  8
0
  6
Continuous
 62
     2
100
AcDbLine
 10
958.2395699333091
 20
-438.1306289981253
 30
0.0
 11
952.7645699333094
 21
-438.1306289981253
 31
0.0
  0
LINE
  5
1C4
330
1F
100
AcDbEntity
  8
0
  6
Continuous
 62
     2
100
AcDbLine
 10
958.2395699333091
 20
-438.8641436328996
 30
0.0
 11
952.7645699333094
 21
-438.8641436328996
 31
0.0
  0
LINE
  5
1C5
330
1F
100
AcDbEntity
  8
0
  6
Continuous
 62
     2
100
AcDbLine
 10
958.2395699333091
 20
-437.9641436328996
 30
0.0
 11
952.7645699333094
 21
-437.9641436328996
 31
0.0
  0
LINE
  5
1C6
330
1F
100
AcDbEntity
  8
0
  6
Continuous
 62
     7
100
AcDbLine
 10
961.2395699333091
 20
-438.1306289981253
 30
0.0
 11
961.2395699333091
 21
-438.8641436328996
 31
0.0
  0
LINE
  5
1C7
330
1F
100
AcDbEntity
  8
0
  6
Continuous
 62
     2
100
AcDbLine
 10
958.2395699333091
 20
-441.1973863155124
 30
0.0
 11
952.7645699333094
 21
-441.1973863155124
 31
0.0
  0
LINE
  5
1C8
330
1F
100
AcDbEntity
  8
0
  6
Continuous
 62
     7
100
AcDbLine
 10
945.4895699333093
 20
-453.1973863155124
 30
0.0
 11
952.8895699333094
 21
-453.1973863155124
 31
0.0
  0
LINE
  5
1C9
330
1F
100
AcDbEntity
  8
0
  6
Continuous
 62
     2
100
AcDbLine
 10
952.7645699333094
 20
-439.7641436328997
 30
0.0
 11
946.5247331046063
 21
-439.7641436328997
 31
0.0
  0
LINE
  5
1CA
330
1F
100
AcDbEntity
  8
0
  6
Continuous
 62
     2
100
AcDbLine
 10
952.7645699333094
 20
-438.1306289981253
 30
0.0
 11
946.7044067620124
 21
-438.1306289981253
 31
0.0
  0
LINE
  5
1CB
330
1F
100
AcDbEntity
  8
0
  6
Continuous
 62
     2
100
AcDbLine
 10
952.7645699333094
 20
-437.2306289981252
 30
0.0
 11
946.5247331046063
 21
-437.2306289981252
 31
0.0
  0
LINE
  5
1CC
330
1F
100
AcDbEntity
  8
0
  6
Continuous
 62
     7
100
AcDbLine
 10
946.5247331046063
 20
-437.2306289981252
 30
0.0
 11
946.7044067620124
 21
-437.0641436328997
 31
0.0
  0
LINE
  5
1CD
330
1F
100
AcDbEntity
  8
0
  6
Continuous
 62
     7
100
AcDbLine
 10
946.5247331046063
 20
-436.1641436328996
 30
0.0
 11
946.7044067620124
 21
-436.3306289981254
 31
0.0
  0
LINE
  5
1CE
330
1F
100
AcDbEntity
  8
0
  6
Continuous
 62
     7
100
AcDbLine
 10
946.5247331046063
 20
-434.3641436328996
 30
0.0
 11
946.7044067620124
 21
-434.5306289981252
 31
0.0
  0
LINE
  5
1CF
330
1F
100
AcDbEntity
  8
0
  6
Continuous
 62
     7
100
AcDbLine
 10
946.5247331046063
 20
-437.9641436328996
 30
0.0
 11
946.7044067620124
 21
-438.1306289981253
 31
0.0
  0
LINE
  5
1D0
330
1F
100
AcDbEntity
  8
0
  6
Continuous
 62
     2
100
AcDbLine
 10
952.7645699333094
 20
-435.4306289981253
 30
0.0
 11
946.5247331046063
 21
-435.4306289981253
 31
0.0
  0
LINE
  5
1D1
330
1F
100
AcDbEntity
  8
0
  6
Continuous
 62
     2
100
AcDbLine
 10
952.7645699333094
 20
-433.9973863155124
 30
0.0
 11
946.3645699333093
 21
-433.9973863155124
 31
0.0
  0
LINE
  5
1D2
330
1F
100
AcDbEntity
  8
0
  6
Continuous
 62
     2
100
AcDbLine
 10
952.7645699333094
 20
-434.3641436328996
 30
0.0
 11
946.5247331046063
 21
-434.3641436328996
 31
0.0
  0
LINE
  5
1D3
330
1F
100
AcDbEntity
  8
0
  6
Continuous
 62
     2
100
AcDbLine
 10
952.7645699333094
 20
-434.5306289981252
 30
0.0
 11
946.7044067620124
 21
-434.5306289981252
 31
0.0
  0
LINE
  5
1D4
330
1F
100
AcDbEntity
  8
0
  6
Continuous
 62
     2
100
AcDbLine
 10
952.7645699333094
 20
-435.2641436328997
 30
0.0
 11
946.7044067620124
 21
-435.2641436328997
 31
0.0
  0
LINE
  5
1D5
330
1F
100
AcDbEntity
  8
0
  6
Continuous
 62
     7
100
AcDbLine
 10
946.5247331046063
 20
-435.4306289981253
 30
0.0
 11
946.7044067620124
 21
-435.2641436328997
 31
0.0
  0
LINE
  5
1D6
330
1F
100
AcDbEntity
  8
0
  6
Continuous
 62
     2
100
AcDbLine
 10
952.7645699333094
 20
-439.0306289981252
 30
0.0
 11
946.5247331046063
 21
-439.0306289981252
 31
0.0
  0
LINE
  5
1D7
330
1F
100
AcDbEntity
  8
0
  6
Continuous
 62
     2
100
AcDbLine
 10
952.7645699333094
 20
-438.8641436328996
 30
0.0
 11
946.7044067620124
 21
-438.8641436328996
 31
0.0
  0
LINE
  5
1D8
330
1F
100
AcDbEntity
  8
0
  6
Continuous
 62
     2
100
AcDbLine
 10
952.7645699333094
 20
-439.9306289981253
 30
0.0
 11
946.7044067620124
 21
-439.9306289981253
 31
0.0
  0
LINE
  5
1D9
330
1F
100
AcDbEntity
  8
0
  6
Continuous
 62
     2
100
AcDbLine
 10
952.7645699333094
 20
-440.6641436328996
 30
0.0
 11
946.7044067620124
 21
-440.6641436328996
 31
0.0
  0
LINE
  5
1DA
330
1F
100
AcDbEntity
  8
0
  6
Continuous
 62
     7
100
AcDbLine
 10
946.5247331046063
 20
-439.0306289981252
 30
0.0
 11
946.7044067620124
 21
-438.8641436328996
 31
0.0
  0
LINE
  5
1DB
330
1F
100
AcDbEntity
  8
0
  6
Continuous
 62
     7
100
AcDbLine
 10
946.5247331046063
 20
-439.7641436328997
 30
0.0
 11
946.7044067620124
 21
-439.9306289981253
 31
0.0
  0
LINE
  5
1DC
330
1F
100
AcDbEntity
  8
0
  6
Continuous
 62
     7
100
AcDbLine
 10
946.5247331046063
 20
-440.8306289981254
 30
0.0
 11
946.7044067620124
 21
-440.6641436328996
 31
0.0
  0
LINE
  5
1DD
330
1F
100
AcDbEntity
  8
0
  6
Continuous
 62
     2
100
AcDbLine
 10
952.7645699333094
 20
-436.1641436328996
 30
0.0
 11
946.5247331046063
 21
-436.1641436328996
 31
0.0
  0
LINE
  5
1DE
330
1F
100
AcDbEntity
  8
0
  6
Continuous
 62
     2
100
AcDbLine
 10
952.7645699333094
 20
-437.0641436328997
 30
0.0
 11
946.7044067620124
 21
-437.0641436328997
 31
0.0
  0
LINE
  5
1DF
330
1F
100
AcDbEntity
  8
0
  6
Continuous
 62
     2
100
AcDbLine
 10
952.7645699333094
 20
-436.3306289981254
 30
0.0
 11
946.7044067620124
 21
-436.3306289981254
 31
0.0
  0
LINE
  5
1E0
330
1F
100
AcDbEntity
  8
0
  6
Continuous
 62
     2
100
AcDbLine
 10
952.7645699333094
 20
-437.9641436328996
 30
0.0
 11
946.5247331046063
 21
-437.9641436328996
 31
0.0
  0
LINE
  5
1E1
330
1F
100
AcDbEntity
  8
0
  6
Continuous
 62
     2
100
AcDbLine
 10
952.7645699333094
 20
-440.8306289981254
 30
0.0
 11
946.5247331046063
 21
-440.8306289981254
 31
0.0
  0
LINE
  5
1E2
330
1F
100
AcDbEntity
  8
0
  6
Continuous
 62
     2
100
AcDbLine
 10
948.4895699333093
 20
-399.1973863155124
 30
0.0
 11
948.4895699333093
 21
-401.4209291802049
 31
0.0
  0
LINE
  5
1E3
330
1F
100
AcDbEntity
  8
0
  6
Continuous
 62
     7
100
AcDbLine
 10
945.4895699333091
 20
-404.1973863155125
 30
0.0
 11
945.4895699333093
 21
-402.1973863155124
 31
0.0
  0
LINE
  5
1E4
330
1F
100
AcDbEntity
  8
0
  6
Continuous
 62
     7
100
AcDbLine
 10
946.4895699333093
 20
-419.1973863155124
 30
0.0
 11
946.4895699333093
 21
-405.1973863155124
 31
0.0
  0
LINE
  5
1E5
330
1F
100
AcDbEntity
  8
0
  6
Continuous
 62
     7
100
AcDbLine
 10
946.2895699333095
 20
-425.1973863155124
 30
0.0
 11
946.3645699333093
 21
-425.1973863155124
 31
0.0
  0
LINE
  5
1E6
330
1F
100
AcDbEntity
  8
0
  6
Continuous
 62
     2
100
AcDbLine
 10
948.4895699333093
 20
-424.1903310794305
 30
0.0
 11
948.4895699333093
 21
-401.4209291802049
 31
0.0
  0
LINE
  5
1E7
330
1F
100
AcDbEntity
  8
0
  6
Continuous
 62
     7
100
AcDbLine
 10
946.3645699333093
 20
-425.1973863155124
 30
0.0
 11
948.4895699333093
 21
-425.1973863155124
 31
0.0
  0
LINE
  5
1E8
330
1F
100
AcDbEntity
  8
0
  6
Continuous
 62
     7
100
AcDbLine
 10
945.4895699333093
 20
-424.3973863155125
 30
0.0
 11
945.4895699333093
 21
-420.1973863155124
 31
0.0
  0
LINE
  5
1E9
330
1F
100
AcDbEntity
  8
0
  6
Continuous
 62
     2
100
AcDbLine
 10
945.4895699333093
 20
-444.0503387027561
 30
0.0
 11
946.3645699333093
 21
-444.0503387027561
 31
0.0
  0
LINE
  5
1EA
330
1F
100
AcDbEntity
  8
0
  6
Continuous
 62
     7
100
AcDbLine
 10
945.4895699333093
 20
-448.1973863155124
 30
0.0
 11
945.4895699333093
 21
-453.1973863155124
 31
0.0
  0
LINE
  5
1EB
330
1F
100
AcDbEntity
  8
0
  6
Continuous
 62
     7
100
AcDbLine
 10
946.3645699333093
 20
-448.1973863155124
 30
0.0
 11
946.3645699333093
 21
-444.0503387027561
 31
0.0
  0
LINE
  5
1EC
330
1F
100
AcDbEntity
  8
0
  6
Continuous
 62
     7
100
AcDbLine
 10
946.3645699333093
 20
-444.0503387027561
 30
0.0
 11
946.3645699333093
 21
-442.1973863155124
 31
0.0
  0
LINE
  5
1ED
330
1F
100
AcDbEntity
  8
0
  6
Continuous
 62
     7
100
AcDbLine
 10
946.3645699333093
 20
-433.9973863155124
 30
0.0
 11
946.3645699333093
 21
-425.1973863155124
 31
0.0
  0
LINE
  5
1EE
330
1F
100
AcDbEntity
  8
0
  6
Continuous
 62
     7
100
AcDbLine
 10
946.4895699333093
 20
-419.1973863155124
 30
0.0
 11
945.4895699333093
 21
-420.1973863155124
 31
0.0
  0
LINE
  5
1EF
330
1F
100
AcDbEntity
  8
0
  6
Continuous
 62
     7
100
AcDbLine
 10
945.4895699333091
 20
-404.1973863155125
 30
0.0
 11
946.4895699333093
 21
-405.1973863155124
 31
0.0
  0
LINE
  5
1F0
330
1F
100
AcDbEntity
  8
0
  6
Continuous
 62
     7
100
AcDbLine
 10
952.8895699333094
 20
-453.1973863155124
 30
0.0
 11
966.589569933309
 21
-453.1973863155124
 31
0.0
  0
LINE
  5
1F1
330
1F
100
AcDbEntity
  8
0
  6
Continuous
 62
     7
100
AcDbLine
 10
970.9895699333091
 20
-399.1973863155124
 30
0.0
 11
964.9581256319669
 21
-399.1973863155124
 31
0.0
  0
LINE
  5
1F2
330
1F
100
AcDbEntity
  8
0
  6
Continuous
 62
     2
100
AcDbLine
 10
970.9895699333091
 20
-399.1973863155124
 30
0.0
 11
970.9895699333091
 21
-401.4209291802049
 31
0.0
  0
LINE
  5
1F3
330
1F
100
AcDbEntity
  8
0
  6
Continuous
 62
     2
100
AcDbLine
 10
970.9895699333091
 20
-401.4209291802049
 30
0.0
 11
959.7395699333096
 21
-401.4209291802049
 31
0.0
  0
LINE
  5
1F4
330
1F
100
AcDbEntity
  8
0
  6
Continuous
 62
     2
100
AcDbLine
 10
970.9895699333091
 20
-401.4209291802049
 30
0.0
 11
970.9895699333091
 21
-424.1903310794305
 31
0.0
  0
LINE
  5
1F5
330
1F
100
AcDbEntity
  8
0
  6
Continuous
 62
     7
100
AcDbLine
 10
973.1895699333089
 20
-408.9676579152069
 30
0.0
 11
973.1895699333089
 21
-411.938699639697
 31
0.0
  0
LINE
  5
1F6
330
1F
100
AcDbEntity
  8
0
  6
Continuous
 62
     7
100
AcDbLine
 10
973.1895699333089
 20
-408.9676579152069
 30
0.0
 11
972.9895699333091
 21
-408.9676579152069
 31
0.0
  0
LINE
  5
1F7
330
1F
100
AcDbEntity
  8
0
  6
Continuous
 62
     7
100
AcDbLine
 10
972.9895699333091
 20
-408.9676579152069
 30
0.0
 11
972.9895699333091
 21
-411.938699639697
 31
0.0
  0
LINE
  5
1F8
330
1F
100
AcDbEntity
  8
0
  6
Continuous
 62
     7
100
AcDbLine
 10
972.9895699333091
 20
-405.1973863155125
 30
0.0
 11
972.9895699333091
 21
-408.9676579152069
 31
0.0
  0
LINE
  5
1F9
330
1F
100
AcDbEntity
  8
0
  6
Continuous
 62
     7
100
AcDbLine
 10
973.9895699333091
 20
-402.1973863155124
 30
0.0
 11
973.9895699333091
 21
-404.1973863155124
 31
0.0
  0
LINE
  5
1FA
330
1F
100
AcDbEntity
  8
0
  6
Continuous
 62
     7
100
AcDbLine
 10
973.9895699333091
 20
-442.1973863155124
 30
0.0
 11
973.9895699333091
 21
-442.6973863155124
 31
0.0
  0
LINE
  5
1FB
330
1F
100
AcDbEntity
  8
0
  6
Continuous
 62
     7
100
AcDbLine
 10
973.9895699333091
 20
-442.6973863155124
 30
0.0
 11
973.9895699333091
 21
-444.0503387027561
 31
0.0
  0
LINE
  5
1FC
330
1F
100
AcDbEntity
  8
0
  6
Continuous
 62
     7
100
AcDbLine
 10
973.9895699333091
 20
-442.1973863155124
 30
0.0
 11
973.1145699333091
 21
-442.1973863155124
 31
0.0
  0
LINE
  5
1FD
330
1F
100
AcDbEntity
  8
0
  6
Continuous
 62
     7
100
AcDbLine
 10
973.9895699333091
 20
-444.6973863155124
 30
0.0
 11
973.9895699333091
 21
-444.0503387027561
 31
0.0
  0
LINE
  5
1FE
330
1F
100
AcDbEntity
  8
0
  6
Continuous
 62
     7
100
AcDbLine
 10
966.589569933309
 20
-453.1973863155124
 30
0.0
 11
973.9895699333091
 21
-453.1973863155124
 31
0.0
  0
LINE
  5
1FF
330
1F
100
AcDbEntity
  8
0
  6
Continuous
 62
     7
100
AcDbLine
 10
973.9895699333091
 20
-448.1973863155124
 30
0.0
 11
973.9895699333091
 21
-453.1973863155124
 31
0.0
  0
LINE
  5
200
330
1F
100
AcDbEntity
  8
0
  6
Continuous
 62
     7
100
AcDbLine
 10
973.9895699333091
 20
-420.1973863155125
 30
0.0
 11
973.9895699333091
 21
-424.3973863155125
 31
0.0
  0
LINE
  5
201
330
1F
100
AcDbEntity
  8
0
  6
Continuous
 62
     2
100
AcDbLine
 10
973.1895699333089
 20
-412.4584109913262
 30
0.0
 11
972.9895699333091
 21
-412.4584109913262
 31
0.0
  0
LINE
  5
202
330
1F
100
AcDbEntity
  8
0
  6
Continuous
 62
     2
100
AcDbLine
 10
973.1895699333089
 20
-411.938699639697
 30
0.0
 11
972.9895699333091
 21
-411.938699639697
 31
0.0
  0
LINE
  5
203
330
1F
100
AcDbEntity
  8
0
  6
Continuous
 62
     7
100
AcDbLine
 10
972.9895699333091
 20
-411.938699639697
 30
0.0
 11
972.9895699333091
 21
-412.4584109913262
 31
0.0
  0
LINE
  5
204
330
1F
100
AcDbEntity
  8
0
  6
Continuous
 62
     7
100
AcDbLine
 10
972.9544067620121
 20
-434.3641436328996
 30
0.0
 11
972.7747331046061
 21
-434.5306289981252
 31
0.0
  0
LINE
  5
205
330
1F
100
AcDbEntity
  8
0
  6
Continuous
 62
     2
100
AcDbLine
 10
966.714569933309
 20
-434.3641436328996
 30
0.0
 11
972.9544067620121
 21
-434.3641436328996
 31
0.0
  0
LINE
  5
206
330
1F
100
AcDbEntity
  8
0
  6
Continuous
 62
     7
100
AcDbLine
 10
972.9544067620121
 20
-435.4306289981253
 30
0.0
 11
972.7747331046061
 21
-435.2641436328997
 31
0.0
  0
LINE
  5
207
330
1F
100
AcDbEntity
  8
0
  6
Continuous
 62
     2
100
AcDbLine
 10
966.714569933309
 20
-434.5306289981252
 30
0.0
 11
972.7747331046061
 21
-434.5306289981252
 31
0.0
  0
LINE
  5
208
330
1F
100
AcDbEntity
  8
0
  6
Continuous
 62
     7
100
AcDbLine
 10
972.9544067620121
 20
-440.8306289981254
 30
0.0
 11
972.7747331046061
 21
-440.6641436328996
 31
0.0
  0
LINE
  5
209
330
1F
100
AcDbEntity
  8
0
  6
Continuous
 62
     2
100
AcDbLine
 10
973.1145699333091
 20
-441.1973863155124
 30
0.0
 11
966.714569933309
 21
-441.1973863155124
 31
0.0
  0
LINE
  5
20A
330
1F
100
AcDbEntity
  8
0
  6
Continuous
 62
     7
100
AcDbLine
 10
972.9544067620121
 20
-437.9641436328996
 30
0.0
 11
972.7747331046061
 21
-438.1306289981253
 31
0.0
  0
LINE
  5
20B
330
1F
100
AcDbEntity
  8
0
  6
Continuous
 62
     7
100
AcDbLine
 10
972.9544067620121
 20
-439.7641436328997
 30
0.0
 11
972.7747331046061
 21
-439.9306289981253
 31
0.0
  0
LINE
  5
20C
330
1F
100
AcDbEntity
  8
0
  6
Continuous
 62
     2
100
AcDbLine
 10
966.714569933309
 20
-437.9641436328996
 30
0.0
 11
972.9544067620121
 21
-437.9641436328996
 31
0.0
  0
LINE
  5
20D
330
1F
100
AcDbEntity
  8
0
  6
Continuous
 62
     2
100
AcDbLine
 10
966.714569933309
 20
-438.1306289981253
 30
0.0
 11
972.7747331046061
 21
-438.1306289981253
 31
0.0
  0
LINE
  5
20E
330
1F
100
AcDbEntity
  8
0
  6
Continuous
 62
     2
100
AcDbLine
 10
966.714569933309
 20
-436.1641436328996
 30
0.0
 11
972.9544067620121
 21
-436.1641436328996
 31
0.0
  0
LINE
  5
20F
330
1F
100
AcDbEntity
  8
0
  6
Continuous
 62
     2
100
AcDbLine
 10
966.714569933309
 20
-436.3306289981254
 30
0.0
 11
972.7747331046061
 21
-436.3306289981254
 31
0.0
  0
LINE
  5
210
330
1F
100
AcDbEntity
  8
0
  6
Continuous
 62
     2
100
AcDbLine
 10
966.714569933309
 20
-435.4306289981253
 30
0.0
 11
972.9544067620121
 21
-435.4306289981253
 31
0.0
  0
LINE
  5
211
330
1F
100
AcDbEntity
  8
0
  6
Continuous
 62
     7
100
AcDbLine
 10
972.9544067620121
 20
-436.1641436328996
 30
0.0
 11
972.7747331046061
 21
-436.3306289981254
 31
0.0
  0
LINE
  5
212
330
1F
100
AcDbEntity
  8
0
  6
Continuous
 62
     2
100
AcDbLine
 10
966.714569933309
 20
-439.0306289981252
 30
0.0
 11
972.9544067620121
 21
-439.0306289981252
 31
0.0
  0
LINE
  5
213
330
1F
100
AcDbEntity
  8
0
  6
Continuous
 62
     2
100
AcDbLine
 10
966.714569933309
 20
-439.7641436328997
 30
0.0
 11
972.9544067620121
 21
-439.7641436328997
 31
0.0
  0
LINE
  5
214
330
1F
100
AcDbEntity
  8
0
  6
Continuous
 62
     2
100
AcDbLine
 10
966.714569933309
 20
-439.9306289981253
 30
0.0
 11
972.7747331046061
 21
-439.9306289981253
 31
0.0
  0
LINE
  5
215
330
1F
100
AcDbEntity
  8
0
  6
Continuous
 62
     2
100
AcDbLine
 10
966.714569933309
 20
-440.8306289981254
 30
0.0
 11
972.9544067620121
 21
-440.8306289981254
 31
0.0
  0
LINE
  5
216
330
1F
100
AcDbEntity
  8
0
  6
Continuous
 62
     2
100
AcDbLine
 10
966.714569933309
 20
-437.2306289981252
 30
0.0
 11
972.9544067620121
 21
-437.2306289981252
 31
0.0
  0
LINE
  5
217
330
1F
100
AcDbEntity
  8
0
  6
Continuous
 62
     2
100
AcDbLine
 10
966.714569933309
 20
-438.8641436328996
 30
0.0
 11
972.7747331046061
 21
-438.8641436328996
 31
0.0
  0
LINE
  5
218
330
1F
100
AcDbEntity
  8
0
  6
Continuous
 62
     2
100
AcDbLine
 10
966.714569933309
 20
-440.6641436328996
 30
0.0
 11
972.7747331046061
 21
-440.6641436328996
 31
0.0
  0
LINE
  5
219
330
1F
100
AcDbEntity
  8
0
  6
Continuous
 62
     2
100
AcDbLine
 10
966.714569933309
 20
-437.0641436328997
 30
0.0
 11
972.7747331046061
 21
-437.0641436328997
 31
0.0
  0
LINE
  5
21A
330
1F
100
AcDbEntity
  8
0
  6
Continuous
 62
     2
100
AcDbLine
 10
966.589569933309
 20
-448.1973863155124
 30
0.0
 11
966.589569933309
 21
-453.1973863155124
 31
0.0
  0
LINE
  5
21B
330
1F
100
AcDbEntity
  8
0
  6
Continuous
 62
     2
100
AcDbLine
 10
966.714569933309
 20
-435.2641436328997
 30
0.0
 11
972.7747331046061
 21
-435.2641436328997
 31
0.0
  0
LINE
  5
21C
330
1F
100
AcDbEntity
  8
0
  6
Continuous
 62
     7
100
AcDbLine
 10
972.9544067620121
 20
-439.0306289981252
 30
0.0
 11
972.7747331046061
 21
-438.8641436328996
 31
0.0
  0
LINE
  5
21D
330
1F
100
AcDbEntity
  8
0
  6
Continuous
 62
     7
100
AcDbLine
 10
972.9544067620121
 20
-437.2306289981252
 30
0.0
 11
972.7747331046061
 21
-437.0641436328997
 31
0.0
  0
LINE
  5
21E
330
1F
100
AcDbEntity
  8
0
  6
Continuous
 62
     7
100
AcDbLine
 10
973.1895699333089
 20
-412.4584109913262
 30
0.0
 11
973.1895699333089
 21
-415.4294527158163
 31
0.0
  0
LINE
  5
21F
330
1F
100
AcDbEntity
  8
0
  6
Continuous
 62
     7
100
AcDbLine
 10
973.1895699333089
 20
-415.4294527158163
 30
0.0
 11
972.9895699333091
 21
-415.4294527158163
 31
0.0
  0
LINE
  5
220
330
1F
100
AcDbEntity
  8
0
  6
Continuous
 62
     7
100
AcDbLine
 10
970.9895699333091
 20
-425.1973863155124
 30
0.0
 11
973.1145699333091
 21
-425.1973863155124
 31
0.0
  0
LINE
  5
221
330
1F
100
AcDbEntity
  8
0
  6
Continuous
 62
     7
100
AcDbLine
 10
970.2157203356122
 20
-425.1973863155124
 30
0.0
 11
970.9895699333091
 21
-425.1973863155124
 31
0.0
  0
LINE
  5
222
330
1F
100
AcDbEntity
  8
0
  6
Continuous
 62
     2
100
AcDbLine
 10
966.714569933309
 20
-433.9973863155124
 30
0.0
 11
973.1145699333091
 21
-433.9973863155124
 31
0.0
  0
LINE
  5
223
330
1F
100
AcDbEntity
  8
0
  6
Continuous
 62
     7
100
AcDbLine
 10
972.9895699333091
 20
-412.4584109913262
 30
0.0
 11
972.9895699333091
 21
-415.4294527158163
 31
0.0
  0
LINE
  5
224
330
1F
100
AcDbEntity
  8
0
  6
Continuous
 62
     2
100
AcDbLine
 10
968.553355925986
 20
-424.1903310794301
 30
0.0
 11
970.9895699333091
 21
-424.1903310794305
 31
0.0
  0
LINE
  5
225
330
1F
100
AcDbEntity
  8
0
  6
Continuous
 62
     7
100
AcDbLine
 10
972.9895699333091
 20
-415.4294527158163
 30
0.0
 11
972.9895699333091
 21
-419.1973863155124
 31
0.0
  0
LINE
  5
226
330
1F
100
AcDbEntity
  8
0
  6
Continuous
 62
     7
100
AcDbLine
 10
973.1895699333089
 20
-411.938699639697
 30
0.0
 11
973.1895699333089
 21
-412.4584109913262
 31
0.0
  0
LINE
  5
227
330
1F
100
AcDbEntity
  8
0
  6
Continuous
 62
     7
100
AcDbLine
 10
973.1145699333091
 20
-442.1973863155124
 30
0.0
 11
973.1145699333091
 21
-441.1973863155124
 31
0.0
  0
LINE
  5
228
330
1F
100
AcDbEntity
  8
0
  6
Continuous
 62
     7
100
AcDbLine
 10
973.1145699333091
 20
-444.0503387027561
 30
0.0
 11
973.1145699333091
 21
-442.1973863155124
 31
0.0
  0
LINE
  5
229
330
1F
100
AcDbEntity
  8
0
  6
Continuous
 62
     7
100
AcDbLine
 10
973.1145699333091
 20
-425.1973863155124
 30
0.0
 11
973.1895699333089
 21
-425.1973863155124
 31
0.0
  0
LINE
  5
22A
330
1F
100
AcDbEntity
  8
0
  6
Continuous
 62
     7
100
AcDbLine
 10
973.1145699333091
 20
-433.9973863155124
 30
0.0
 11
973.1145699333091
 21
-425.1973863155124
 31
0.0
  0
LINE
  5
22B
330
1F
100
AcDbEntity
  8
0
  6
Continuous
 62
     7
100
AcDbLine
 10
973.9895699333091
 20
-420.1973863155125
 30
0.0
 11
972.9895699333091
 21
-419.1973863155124
 31
0.0
  0
LINE
  5
22C
330
1F
100
AcDbEntity
  8
0
  6
Continuous
 62
     7
100
AcDbLine
 10
972.9895699333091
 20
-405.1973863155125
 30
0.0
 11
973.9895699333091
 21
-404.1973863155124
 31
0.0
  0
LINE
  5
22D
330
1F
100
AcDbEntity
  8
0
  6
Continuous
 62
     7
100
AcDbLine
 10
945.4895699333093
 20
-442.1973863155124
 30
0.0
 11
945.4895699333093
 21
-442.6973863155124
 31
0.0
  0
LINE
  5
22E
330
1F
100
AcDbEntity
  8
0
  6
Continuous
 62
     7
100
AcDbLine
 10
946.3645699333093
 20
-442.1973863155124
 30
0.0
 11
946.3645699333093
 21
-441.1973863155124
 31
0.0
  0
LINE
  5
22F
330
1F
100
AcDbEntity
  8
0
  6
Continuous
 62
     7
100
AcDbLine
 10
946.3645699333093
 20
-442.1973863155124
 30
0.0
 11
945.4895699333093
 21
-442.1973863155124
 31
0.0
  0
LINE
  5
230
330
1F
100
AcDbEntity
  8
0
  6
Continuous
 62
     7
100
AcDbLine
 10
945.4895699333093
 20
-444.6973863155124
 30
0.0
 11
945.4895699333093
 21
-448.1973863155124
 31
0.0
  0
LINE
  5
231
330
1F
100
AcDbEntity
  8
0
  6
Continuous
 62
     7
100
AcDbLine
 10
945.4895699333093
 20
-444.0503387027561
 30
0.0
 11
945.4895699333093
 21
-444.6973863155124
 31
0.0
  0
LINE
  5
232
330
1F
100
AcDbEntity
  8
0
  6
Continuous
 62
     7
100
AcDbLine
 10
942.3395699333092
 20
-444.6973863155124
 30
0.0
 11
942.3395699333092
 21
-442.6973863155124
 31
0.0
  0
LINE
  5
233
330
1F
100
AcDbEntity
  8
0
  6
Continuous
 62
     2
100
AcDbLine
 10
942.3395699333092
 20
-444.6973863155124
 30
0.0
 11
945.4895699333093
 21
-444.6973863155124
 31
0.0
  0
LINE
  5
234
330
1F
100
AcDbEntity
  8
0
  6
Continuous
 62
     7
100
AcDbLine
 10
942.3395699333092
 20
-442.6973863155124
 30
0.0
 11
945.4895699333093
 21
-442.6973863155124
 31
0.0
  0
LINE
  5
235
330
1F
100
AcDbEntity
  8
0
  6
Continuous
 62
     7
100
AcDbLine
 10
945.4895699333093
 20
-448.1973863155124
 30
0.0
 11
942.3395699333092
 21
-444.6973863155124
 31
0.0
  0
LINE
  5
236
330
1F
100
AcDbEntity
  8
0
  6
Continuous
 62
     7
100
AcDbLine
 10
945.4895699333093
 20
-442.6973863155124
 30
0.0
 11
945.4895699333093
 21
-444.0503387027561
 31
0.0
  0
LINE
  5
237
330
1F
100
AcDbEntity
  8
1
  6
Continuous
 62
     7
100
AcDbLine
 10
954.5178129385014
 20
-399.1990241842007
 30
0.0
 11
964.9581256319669
 21
-399.1990241842007
 31
0.0
  0
LINE
  5
238
330
1F
100
AcDbEntity
  8
0
  6
Continuous
 62
     7
100
AcDbLine
 10
905.1712180946865
 20
-398.862580977569
 30
0.0
 11
910.4511266147788
 21
-418.567467833866
 31
0.0
  0
LINE
  5
239
330
1F
100
AcDbEntity
  8
1
  6
Continuous
 62
     2
100
AcDbLine
 10
905.1712180946865
 20
-398.862580977569
 30
0.0
 11
895.9949227449408
 21
-401.3213619060428
 31
0.0
  0
LINE
  5
23A
330
1F
100
AcDbEntity
  8
0
  6
Continuous
 62
     7
100
AcDbLine
 10
910.4511266147788
 20
-418.567467833866
 30
0.0
 11
910.6970047076262
 21
-419.4850973688406
 31
0.0
  0
LINE
  5
23B
330
1F
100
AcDbEntity
  8
1
  6
Continuous
 62
     7
100
AcDbLine
 10
895.7490446520934
 20
-400.4037323710682
 30
0.0
 11
901.5207093578798
 21
-421.9438782973144
 31
0.0
  0
LINE
  5
23C
330
1F
100
AcDbEntity
  8
0
  6
Continuous
 62
     7
100
AcDbLine
 10
895.7490446520934
 20
-400.4037323710682
 30
0.0
 11
904.9253400018391
 21
-397.9449514425944
 31
0.0
  0
LINE
  5
23D
330
1F
100
AcDbEntity
  8
0
  6
Continuous
 62
     7
100
AcDbLine
 10
901.5207093578798
 20
-421.9438782973144
 30
0.0
 11
910.6970047076262
 21
-419.4850973688406
 31
0.0
  0
LINE
  5
23E
330
1F
100
AcDbEntity
  8
1
  6
Continuous
 62
     2
100
AcDbLine
 10
901.2748312650324
 20
-421.0262487623398
 30
0.0
 11
910.4511266147788
 21
-418.567467833866
 31
0.0
  0
LINE
  5
23F
330
1F
100
AcDbEntity
  8
1
  6
DOT_CENTER
 62
     2
100
AcDbLine
 10
895.1850537567622
 20
-412.0981826875831
 30
0.0
 11
912.295945638843
 21
-407.5133330260035
 31
0.0
  0
LINE
  5
240
330
1F
100
AcDbEntity
  8
0
  6
Continuous
 62
     7
100
AcDbLine
 10
900.0718206184462
 20
-422.3321068649682
 30
0.0
 11
894.46868744503
 21
-401.4209291802049
 31
0.0
  0
LINE
  5
241
330
1F
100
AcDbEntity
  8
0
  6
Continuous
 62
     7
100
AcDbLine
 10
899.8259425255987
 20
-421.4144773299935
 30
0.0
 11
901.2748312650324
 21
-421.0262487623398
 31
0.0
  0
ARC
  5
242
102
{ACAD_REACTORS
330
309
102
}
330
1F
100
AcDbEntity
  8
1
  6
Continuous
 62
     7
100
AcDbCircle
 10
1000.246125281133
 20
-595.2429013589698
 30
0.0
 40
0.3333333333332573
100
AcDbArc
 50
299.9816393688168
 51
119.9816393689594
  0
ARC
  5
243
102
{ACAD_REACTORS
330
309
102
}
330
1F
100
AcDbEntity
  8
1
  6
Continuous
 62
     7
100
AcDbCircle
 10
1000.246125281133
 20
-593.589631968033
 30
0.0
 40
0.3333333333333712
100
AcDbArc
 50
270.0
 51
90.0
  0
ARC
  5
244
102
{ACAD_REACTORS
330
309
102
}
330
1F
100
AcDbEntity
  8
1
  6
Continuous
 62
     7
100
AcDbCircle
 10
1000.246125281133
 20
-591.9363625770964
 30
0.0
 40
0.3333333333337686
100
AcDbArc
 50
240.0183606310309
 51
60.01836063117346
  0
ARC
  5
245
102
{ACAD_REACTORS
330
30A
102
}
330
1F
100
AcDbEntity
  8
1
  6
Continuous
 62
     7
100
AcDbCircle
 10
992.2461252811327
 20
-595.2429013589698
 30
0.0
 40
0.3333333333333712
100
AcDbArc
 50
180.0
 51
0.0
  0
ARC
  5
246
102
{ACAD_REACTORS
330
30A
102
}
330
1F
100
AcDbEntity
  8
1
  6
Continuous
 62
     7
100
AcDbCircle
 10
992.2461252811327
 20
-591.9363625770964
 30
0.0
 40
0.3333333333332575
100
AcDbArc
 50
0.0
 51
180.0
  0
ARC
  5
247
102
{ACAD_REACTORS
330
30B
102
}
330
1F
100
AcDbEntity
  8
1
  6
Continuous
 62
     7
100
AcDbCircle
 10
995.9127919477993
 20
-597.3582859743543
 30
0.0
 40
0.3333333333333709
100
AcDbArc
 50
240.0183606311493
 51
60.01836063114937
  0
ARC
  5
248
102
{ACAD_REACTORS
330
30B
102
}
330
1F
100
AcDbEntity
  8
1
  6
Continuous
 62
     7
100
AcDbCircle
 10
993.5794586144659
 20
-591.1671318078656
 30
0.0
 40
0.3333333333333712
100
AcDbArc
 50
0.0
 51
180.0
  0
ARC
  5
249
102
{ACAD_REACTORS
330
30C
102
}
330
1F
100
AcDbEntity
  8
1
  6
Continuous
 62
     7
100
AcDbCircle
 10
997.647825735324
 20
-590.3584146559984
 30
0.0
 40
0.2649662124753149
100
AcDbArc
 50
0.0
 51
149.9999999999756
  0
ARC
  5
24A
102
{ACAD_REACTORS
330
30C
102
}
330
1F
100
AcDbEntity
  8
1
  6
Continuous
 62
     7
100
AcDbCircle
 10
997.579458614466
 20
-596.7813628974312
 30
0.0
 40
0.3333333333333712
100
AcDbArc
 50
180.0
 51
0.0
  0
ARC
  5
24B
102
{ACAD_REACTORS
330
30C
102
}
330
1F
100
AcDbEntity
  8
1
  6
Continuous
 62
     7
100
AcDbCircle
 10
994.9127919477993
 20
-595.2420468954001
 30
0.0
 40
0.3333333333333712
100
AcDbArc
 50
180.0
 51
0.0
  0
ARC
  5
24C
102
{ACAD_REACTORS
330
30C
102
}
330
1F
100
AcDbEntity
  8
1
  6
Continuous
 62
     7
100
AcDbCircle
 10
994.8444248269412
 20
-590.3584146559984
 30
0.0
 40
0.2649662124753319
100
AcDbArc
 50
30.00000000001207
 51
180.0
  0
ARC
  5
24D
330
1F
100
AcDbEntity
  8
0
  6
Continuous
 62
     7
100
AcDbCircle
 10
872.8396810135731
 20
-412.1985553155116
 30
0.0
 40
0.3000000000001304
100
AcDbArc
 50
119.9816393688826
 51
240.0183606311174
  0
ARC
  5
24E
330
1F
100
AcDbEntity
  8
0
  6
Continuous
 62
     7
100
AcDbCircle
 10
872.8396810135731
 20
-412.1985553155116
 30
0.0
 40
0.1000000000000548
100
AcDbArc
 50
119.9816393688287
 51
240.018360631155
  0
ARC
  5
24F
330
1F
100
AcDbEntity
  8
0
  6
Continuous
 62
     7
100
AcDbCircle
 10
864.1082299004551
 20
-402.1973863155124
 30
0.0
 40
3.0
100
AcDbArc
 50
90.0
 51
165.0000000000047
  0
ARC
  5
250
330
1F
100
AcDbEntity
  8
0
  6
Continuous
 62
     7
100
AcDbCircle
 10
855.339569933309
 20
-437.5973863155125
 30
0.0
 40
0.4999999999998925
100
AcDbArc
 50
132.8181467429815
 51
180.0
  0
ARC
  5
251
330
1F
100
AcDbEntity
  8
0
  6
Continuous
 62
     7
100
AcDbCircle
 10
855.339569933309
 20
-435.7973863155125
 30
0.0
 40
0.4999999999998091
100
AcDbArc
 50
132.8181467429904
 51
180.0
  0
ARC
  5
252
330
1F
100
AcDbEntity
  8
0
  6
Continuous
 62
     7
100
AcDbCircle
 10
855.339569933309
 20
-433.9973863155124
 30
0.0
 40
0.5
100
AcDbArc
 50
180.0
 51
227.1818532570096
  0
ARC
  5
253
330
1F
100
AcDbEntity
  8
0
  6
Continuous
 62
     7
100
AcDbCircle
 10
855.339569933309
 20
-439.3973863155125
 30
0.0
 40
0.4999999999998925
100
AcDbArc
 50
132.8181467429815
 51
180.0
  0
ARC
  5
254
330
1F
100
AcDbEntity
  8
0
  6
Continuous
 62
     7
100
AcDbCircle
 10
855.339569933309
 20
-437.5973863155125
 30
0.0
 40
0.5
100
AcDbArc
 50
180.0
 51
227.1818532570185
  0
ARC
  5
255
330
1F
100
AcDbEntity
  8
0
  6
Continuous
 62
     7
100
AcDbCircle
 10
855.339569933309
 20
-435.7973863155125
 30
0.0
 40
0.5
100
AcDbArc
 50
180.0
 51
227.1818532570051
  0
ARC
  5
256
330
1F
100
AcDbEntity
  8
0
  6
Continuous
 62
     7
100
AcDbCircle
 10
855.339569933309
 20
-439.3973863155125
 30
0.0
 40
0.5
100
AcDbArc
 50
180.0
 51
227.1818532570096
  0
ARC
  5
257
330
1F
100
AcDbEntity
  8
0
  6
Continuous
 62
     7
100
AcDbCircle
 10
854.839569933309
 20
-438.4973863155124
 30
0.0
 40
0.4999999999999636
100
AcDbArc
 50
312.8181467430095
 51
47.18185325698607
  0
ARC
  5
258
330
1F
100
AcDbEntity
  8
0
  6
Continuous
 62
     7
100
AcDbCircle
 10
854.839569933309
 20
-436.6973863155124
 30
0.0
 40
0.500000000000047
100
AcDbArc
 50
312.8181467430006
 51
47.18185325697721
  0
ARC
  5
259
330
1F
100
AcDbEntity
  8
0
  6
Continuous
 62
     7
100
AcDbCircle
 10
854.839569933309
 20
-434.8973863155125
 30
0.0
 40
0.4999999999999636
100
AcDbArc
 50
312.8181467430095
 51
47.18185325699935
  0
ARC
  5
25A
330
1F
100
AcDbEntity
  8
0
  6
Continuous
 62
     7
100
AcDbCircle
 10
877.6395699333092
 20
-414.4597477193045
 30
0.0
 40
0.2000000000000756
100
AcDbArc
 50
240.0183606310904
 51
60.01836063116315
  0
ARC
  5
25B
330
1F
100
AcDbEntity
  8
0
  6
Continuous
 62
     7
100
AcDbCircle
 10
855.339569933309
 20
-441.1973863155124
 30
0.0
 40
0.499999999999922
100
AcDbArc
 50
132.8181467430139
 51
180.0
  0
ARC
  5
25C
330
1F
100
AcDbEntity
  8
0
  6
Continuous
 62
     7
100
AcDbCircle
 10
877.839569933309
 20
-444.6973863155124
 30
0.0
 40
2.0
100
AcDbArc
 50
0.0
 51
180.0
  0
ARC
  5
25D
330
1F
100
AcDbEntity
  8
0
  6
Continuous
 62
     7
100
AcDbCircle
 10
877.839569933309
 20
-444.6973863155124
 30
0.0
 40
2.499999999999403
100
AcDbArc
 50
15.00000000000353
 51
165.0000000000019
  0
ARC
  5
25E
330
1F
100
AcDbEntity
  8
0
  6
Continuous
 62
     7
100
AcDbCircle
 10
854.839569933309
 20
-440.2973863155125
 30
0.0
 40
0.499999999999922
100
AcDbArc
 50
312.8181467430139
 51
47.18185325699049
  0
ARC
  5
25F
330
1F
100
AcDbEntity
  8
0
  6
Continuous
 62
     7
100
AcDbCircle
 10
900.339569933309
 20
-433.9973863155124
 30
0.0
 40
0.4999999999999636
100
AcDbArc
 50
312.8181467430095
 51
0.0
  0
ARC
  5
260
330
1F
100
AcDbEntity
  8
0
  6
Continuous
 62
     7
100
AcDbCircle
 10
900.339569933309
 20
-437.5973863155125
 30
0.0
 40
0.499999999999922
100
AcDbArc
 50
312.8181467430139
 51
0.0
  0
ARC
  5
261
330
1F
100
AcDbEntity
  8
0
  6
Continuous
 62
     7
100
AcDbCircle
 10
900.339569933309
 20
-439.3973863155125
 30
0.0
 40
0.5
100
AcDbArc
 50
0.0
 51
47.18185325699935
  0
ARC
  5
262
330
1F
100
AcDbEntity
  8
0
  6
Continuous
 62
     7
100
AcDbCircle
 10
900.839569933309
 20
-438.4973863155124
 30
0.0
 40
0.4999999999997674
100
AcDbArc
 50
132.8181467429948
 51
227.1818532570096
  0
ARC
  5
263
330
1F
100
AcDbEntity
  8
0
  6
Continuous
 62
     7
100
AcDbCircle
 10
900.839569933309
 20
-434.8973863155125
 30
0.0
 40
0.4999999999998925
100
AcDbArc
 50
132.8181467429815
 51
227.1818532570096
  0
ARC
  5
264
330
1F
100
AcDbEntity
  8
0
  6
Continuous
 62
     7
100
AcDbCircle
 10
900.339569933309
 20
-435.7973863155125
 30
0.0
 40
0.5
100
AcDbArc
 50
0.0
 51
47.18185325699049
  0
ARC
  5
265
330
1F
100
AcDbEntity
  8
0
  6
Continuous
 62
     7
100
AcDbCircle
 10
900.339569933309
 20
-437.5973863155125
 30
0.0
 40
0.5
100
AcDbArc
 50
0.0
 51
47.18185325699935
  0
ARC
  5
266
330
1F
100
AcDbEntity
  8
0
  6
Continuous
 62
     7
100
AcDbCircle
 10
900.339569933309
 20
-435.7973863155125
 30
0.0
 40
0.499999999999922
100
AcDbArc
 50
312.8181467430139
 51
0.0
  0
ARC
  5
267
330
1F
100
AcDbEntity
  8
0
  6
Continuous
 62
     7
100
AcDbCircle
 10
900.839569933309
 20
-436.6973863155124
 30
0.0
 40
0.499999999999684
100
AcDbArc
 50
132.8181467430037
 51
227.1818532570185
  0
ARC
  5
268
330
1F
100
AcDbEntity
  8
0
  6
Continuous
 62
     7
100
AcDbCircle
 10
900.339569933309
 20
-441.1973863155124
 30
0.0
 40
0.5
100
AcDbArc
 50
0.0
 51
47.18185325697721
  0
ARC
  5
269
330
1F
100
AcDbEntity
  8
0
  6
Continuous
 62
     7
100
AcDbCircle
 10
900.339569933309
 20
-439.3973863155125
 30
0.0
 40
0.4999999999999636
100
AcDbArc
 50
312.8181467430095
 51
0.0
  0
ARC
  5
26A
330
1F
100
AcDbEntity
  8
0
  6
Continuous
 62
     7
100
AcDbCircle
 10
900.839569933309
 20
-440.2973863155125
 30
0.0
 40
0.4999999999998091
100
AcDbArc
 50
132.8181467429904
 51
227.1818532570051
  0
ARC
  5
26B
330
1F
100
AcDbEntity
  8
0
  6
Continuous
 62
     7
100
AcDbCircle
 10
899.7969896350361
 20
-424.3973863155125
 30
0.0
 40
0.7999999999998977
100
AcDbArc
 50
270.0
 51
15.00000000000176
  0
ARC
  5
26C
330
1F
100
AcDbEntity
  8
0
  6
Continuous
 62
     7
100
AcDbCircle
 10
877.039569933309
 20
-413.1900042719319
 30
0.0
 40
0.2000000000000455
100
AcDbArc
 50
180.0
 51
0.0
  0
ARC
  5
26D
330
1F
100
AcDbEntity
  8
0
  6
Continuous
 62
     7
100
AcDbCircle
 10
880.2395699333091
 20
-412.1985553155116
 30
0.0
 40
0.2000000000001023
100
AcDbArc
 50
270.0
 51
90.0
  0
ARC
  5
26E
330
1F
100
AcDbEntity
  8
0
  6
Continuous
 62
     7
100
AcDbCircle
 10
877.839569933309
 20
-411.9985553155116
 30
0.0
 40
0.1000000000003115
100
AcDbArc
 50
209.9999999998293
 51
329.9999999999753
  0
ARC
  5
26F
330
1F
100
AcDbEntity
  8
0
  6
Continuous
 62
     7
100
AcDbCircle
 10
882.8394588530451
 20
-412.1985553155116
 30
0.0
 40
0.2999999999995623
100
AcDbArc
 50
299.9816393686946
 51
60.01836063130546
  0
ARC
  5
270
330
1F
100
AcDbEntity
  8
0
  6
Continuous
 62
     7
100
AcDbCircle
 10
878.6395699333092
 20
-414.1135938731504
 30
0.0
 40
0.2000000000000455
100
AcDbArc
 50
180.0
 51
0.0
  0
ARC
  5
271
330
1F
100
AcDbEntity
  8
0
  6
Continuous
 62
     7
100
AcDbCircle
 10
880.2395699333091
 20
-413.1905169500735
 30
0.0
 40
0.2000000000000604
100
AcDbArc
 50
299.9816393688369
 51
119.9816393688775
  0
ARC
  5
272
330
1F
100
AcDbEntity
  8
0
  6
Continuous
 62
     7
100
AcDbCircle
 10
879.4395699333091
 20
-413.6520554116121
 30
0.0
 40
0.2000000000000455
100
AcDbArc
 50
180.0
 51
299.9816393686193
  0
ARC
  5
273
330
1F
100
AcDbEntity
  8
0
  6
Continuous
 62
     7
100
AcDbCircle
 10
880.2395699333091
 20
-411.2065936809495
 30
0.0
 40
0.2000000000000112
100
AcDbArc
 50
240.018360631155
 51
60.01836063116315
  0
ARC
  5
274
330
1F
100
AcDbEntity
  8
0
  6
Continuous
 62
     7
100
AcDbCircle
 10
882.8394588530451
 20
-412.1985553155116
 30
0.0
 40
0.0999999999995511
100
AcDbArc
 50
299.9816393683936
 51
60.01836063162265
  0
ARC
  5
275
330
1F
100
AcDbEntity
  8
0
  6
Continuous
 62
     7
100
AcDbCircle
 10
891.5709099661632
 20
-402.1973863155124
 30
0.0
 40
2.999999999999623
100
AcDbArc
 50
15.00000000000089
 51
27.53593837997098
  0
ARC
  5
276
330
1F
100
AcDbEntity
  8
0
  6
Continuous
 62
     7
100
AcDbCircle
 10
891.5709099661632
 20
-402.1973863155124
 30
0.0
 40
2.9999999999994
100
AcDbArc
 50
27.53593837997098
 51
90.0
  0
ARC
  5
277
330
1F
100
AcDbEntity
  8
0
  6
Continuous
 62
     7
100
AcDbCircle
 10
876.9985496607941
 20
-410.2598249282908
 30
0.0
 40
0.158979727485379
100
AcDbArc
 50
29.99999999996045
 51
180.0
  0
ARC
  5
278
330
1F
100
AcDbEntity
  8
0
  6
Continuous
 62
     7
100
AcDbCircle
 10
878.6805902058242
 20
-410.2598249282908
 30
0.0
 40
0.1589797274848479
100
AcDbArc
 50
0.0
 51
150.0000000000396
  0
ARC
  5
279
330
1F
100
AcDbEntity
  8
0
  6
Continuous
 62
     7
100
AcDbCircle
 10
879.4395699333091
 20
-410.7450552194111
 30
0.0
 40
0.1999999999995074
100
AcDbArc
 50
60.01836063137256
 51
180.0
  0
ARC
  5
27A
330
1F
100
AcDbEntity
  8
0
  6
Continuous
 62
     7
100
AcDbCircle
 10
876.2395699333091
 20
-410.7450552194111
 30
0.0
 40
0.2000000000000455
100
AcDbArc
 50
0.0
 51
180.0
  0
ARC
  5
27B
330
1F
100
AcDbEntity
  8
0
  6
Continuous
 62
     7
100
AcDbCircle
 10
875.4395699333091
 20
-413.1905169500735
 30
0.0
 40
0.2000000000000455
100
AcDbArc
 50
180.0
 51
0.0
  0
ARC
  5
27C
330
1F
100
AcDbEntity
  8
0
  6
Continuous
 62
     7
100
AcDbCircle
 10
876.4395699333091
 20
-413.5365426266919
 30
0.0
 40
0.4000000000000909
100
AcDbArc
 50
180.0
 51
240.0183606311268
  0
ARC
  5
27D
330
1F
100
AcDbEntity
  8
0
  6
Continuous
 62
     7
100
AcDbCircle
 10
875.4395699333091
 20
-411.2065936809495
 30
0.0
 40
0.2000000000000455
100
AcDbArc
 50
0.0
 51
180.0
  0
ARC
  5
27E
330
1F
100
AcDbEntity
  8
0
  6
Continuous
 62
     7
100
AcDbCircle
 10
855.8821502315822
 20
-424.3973863155125
 30
0.0
 40
0.8000000000007184
100
AcDbArc
 50
165.0000000000151
 51
270.0
  0
ARC
  5
27F
330
1F
100
AcDbEntity
  8
0
  6
Continuous
 62
     7
100
AcDbCircle
 10
946.8645699333093
 20
-437.5973863155125
 30
0.0
 40
0.500000000000047
100
AcDbArc
 50
132.8181467430007
 51
227.181853256986
  0
ARC
  5
280
330
1F
100
AcDbEntity
  8
0
  6
Continuous
 62
     7
100
AcDbCircle
 10
946.8645699333093
 20
-433.9973863155124
 30
0.0
 40
0.5
100
AcDbArc
 50
180.0
 51
227.1818532569905
  0
ARC
  5
281
330
1F
100
AcDbEntity
  8
0
  6
Continuous
 62
     7
100
AcDbCircle
 10
946.8645699333093
 20
-435.7973863155125
 30
0.0
 40
0.4999999999999636
100
AcDbArc
 50
132.8181467430095
 51
227.181853256986
  0
ARC
  5
282
330
1F
100
AcDbEntity
  8
0
  6
Continuous
 62
     7
100
AcDbCircle
 10
946.3645699333093
 20
-438.4973863155124
 30
0.0
 40
0.4999999999999636
100
AcDbArc
 50
312.8181467430095
 51
47.18185325698607
  0
ARC
  5
283
330
1F
100
AcDbEntity
  8
0
  6
Continuous
 62
     7
100
AcDbCircle
 10
946.3645699333093
 20
-440.2973863155125
 30
0.0
 40
0.499999999999922
100
AcDbArc
 50
312.8181467430139
 51
47.18185325699049
  0
ARC
  5
284
330
1F
100
AcDbEntity
  8
0
  6
Continuous
 62
     7
100
AcDbCircle
 10
946.8645699333093
 20
-439.3973863155125
 30
0.0
 40
0.500000000000047
100
AcDbArc
 50
132.8181467430007
 51
227.1818532569905
  0
ARC
  5
285
330
1F
100
AcDbEntity
  8
0
  6
Continuous
 62
     7
100
AcDbCircle
 10
946.3645699333093
 20
-436.6973863155124
 30
0.0
 40
0.500000000000047
100
AcDbArc
 50
312.8181467430006
 51
47.18185325697721
  0
ARC
  5
286
330
1F
100
AcDbEntity
  8
0
  6
Continuous
 62
     7
100
AcDbCircle
 10
946.3645699333093
 20
-434.8973863155125
 30
0.0
 40
0.4999999999999636
100
AcDbArc
 50
312.8181467430095
 51
47.18185325699935
  0
ARC
  5
287
330
1F
100
AcDbEntity
  8
0
  6
Continuous
 62
     7
100
AcDbCircle
 10
946.2895699333095
 20
-424.3973863155125
 30
0.0
 40
0.8000000000001819
100
AcDbArc
 50
180.0
 51
270.0
  0
ARC
  5
288
330
1F
100
AcDbEntity
  8
0
  6
Continuous
 62
     7
100
AcDbCircle
 10
946.8645699333093
 20
-441.1973863155124
 30
0.0
 40
0.4999999999998385
100
AcDbArc
 50
132.8181467430228
 51
180.0
  0
ARC
  5
289
330
1F
100
AcDbEntity
  8
0
  6
Continuous
 62
     7
100
AcDbCircle
 10
948.4895699333093
 20
-402.1973863155124
 30
0.0
 40
3.0
100
AcDbArc
 50
90.0
 51
180.0
  0
ARC
  5
28A
330
1F
100
AcDbEntity
  8
0
  6
Continuous
 62
     7
100
AcDbCircle
 10
972.6145699333091
 20
-439.3973863155125
 30
0.0
 40
0.4999999999999636
100
AcDbArc
 50
312.8181467430095
 51
47.18185325699935
  0
ARC
  5
28B
330
1F
100
AcDbEntity
  8
0
  6
Continuous
 62
     7
100
AcDbCircle
 10
972.6145699333091
 20
-433.9973863155124
 30
0.0
 40
0.4999999999999636
100
AcDbArc
 50
312.8181467430095
 51
0.0
  0
ARC
  5
28C
330
1F
100
AcDbEntity
  8
0
  6
Continuous
 62
     7
100
AcDbCircle
 10
972.6145699333091
 20
-435.7973863155125
 30
0.0
 40
0.499999999999922
100
AcDbArc
 50
312.8181467430139
 51
47.18185325699049
  0
ARC
  5
28D
330
1F
100
AcDbEntity
  8
0
  6
Continuous
 62
     7
100
AcDbCircle
 10
972.6145699333091
 20
-437.5973863155125
 30
0.0
 40
0.499999999999922
100
AcDbArc
 50
312.8181467430139
 51
47.18185325699935
  0
ARC
  5
28E
330
1F
100
AcDbEntity
  8
0
  6
Continuous
 62
     7
100
AcDbCircle
 10
973.1145699333091
 20
-436.6973863155124
 30
0.0
 40
0.4999999999998385
100
AcDbArc
 50
132.8181467430228
 51
227.1818532569993
  0
ARC
  5
28F
330
1F
100
AcDbEntity
  8
0
  6
Continuous
 62
     7
100
AcDbCircle
 10
973.1145699333091
 20
-438.4973863155124
 30
0.0
 40
0.499999999999922
100
AcDbArc
 50
132.8181467430139
 51
227.1818532569905
  0
ARC
  5
290
330
1F
100
AcDbEntity
  8
0
  6
Continuous
 62
     7
100
AcDbCircle
 10
972.6145699333091
 20
-441.1973863155124
 30
0.0
 40
0.5
100
AcDbArc
 50
0.0
 51
47.18185325697721
  0
ARC
  5
291
330
1F
100
AcDbEntity
  8
0
  6
Continuous
 62
     7
100
AcDbCircle
 10
973.1145699333091
 20
-434.8973863155125
 30
0.0
 40
0.500000000000047
100
AcDbArc
 50
132.8181467430007
 51
227.1818532569905
  0
ARC
  5
292
330
1F
100
AcDbEntity
  8
0
  6
Continuous
 62
     7
100
AcDbCircle
 10
973.1145699333091
 20
-440.2973863155125
 30
0.0
 40
0.4999999999999636
100
AcDbArc
 50
132.8181467430095
 51
227.181853256986
  0
ARC
  5
293
330
1F
100
AcDbEntity
  8
0
  6
Continuous
 62
     7
100
AcDbCircle
 10
973.1895699333089
 20
-424.3973863155125
 30
0.0
 40
0.7999999999998977
100
AcDbArc
 50
270.0
 51
0.0
  0
ARC
  5
294
330
1F
100
AcDbEntity
  8
0
  6
Continuous
 62
     7
100
AcDbCircle
 10
970.9895699333091
 20
-402.1973863155124
 30
0.0
 40
3.0
100
AcDbArc
 50
0.0
 51
90.0
  0
SPLINE
  5
295
330
1F
100
AcDbEntity
  8
0
  6
Continuous
 62
     7
100
AcDbSpline
210
0.0
220
0.0
230
1.0
 70
     8
 71
     3
 72
    11
 73
     7
 74
     5
 42
0.000000001
 43
0.0000000001
 44
0.00000001
 40
0.0
 40
0.0
 40
0.0
 40
0.0
 40
0.5261685665116284
 40
1.053925225914781
 40
3.233529641273118
 40
5.418608349356558
 40
5.418608349356558
 40
5.418608349356558
 40
5.418608349356558
 10
964.965510258511
 20
-399.2011670526404
 30
0.0
 10
964.8083209190701
 20
-399.1232407678399
 30
0.0
 10
964.4934678017958
 20
-398.967153012495
 30
0.0
 10
963.5010714618578
 20
-398.5468580981534
 30
0.0
 10
961.9259891408292
 20
-398.0635348771597
 30
0.0
 10
960.4689854732156
 20
-397.9845122858602
 30
0.0
 10
959.7395699333092
 20
-397.9449514425944
 30
0.0
 11
964.965510258511
 21
-399.2011670526404
 31
0.0
 11
964.4917974558272
 21
-398.9721484026302
 31
0.0
 11
964.0064902041796
 21
-398.7647744314347
 31
0.0
 11
961.9148269206149
 21
-398.1518958756335
 31
0.0
 11
959.7395699333092
 21
-397.9449514425944
 31
0.0
  0
SPLINE
  5
296
330
1F
100
AcDbEntity
  8
0
  6
Continuous
 62
     7
100
AcDbSpline
210
0.0
220
0.0
230
1.0
 70
     8
 71
     3
 72
    11
 73
     7
 74
     5
 42
0.000000001
 43
0.0000000001
 44
0.00000001
 40
0.0
 40
0.0
 40
0.0
 40
0.0
 40
0.7309906745388263
 40
1.452362977207218
 40
2.152200428392031
 40
2.821427118721652
 40
2.821427118721652
 40
2.821427118721652
 40
2.821427118721652
 10
860.989434408278
 20
-405.1973863155124
 30
0.0
 10
861.1837066611704
 20
-405.0492877725656
 30
0.0
 10
861.5696949420071
 20
-404.7550393788615
 30
0.0
 10
862.2211768187024
 20
-404.4455371089384
 30
0.0
 10
862.8919190328281
 20
-404.2381672292184
 30
0.0
 10
863.3489334666559
 20
-404.2107758011916
 30
0.0
 10
863.572331515592
 20
-404.1973863155124
 30
0.0
 11
860.989434408278
 21
-405.1973863155124
 31
0.0
 11
861.5858417275889
 21
-404.7747213461045
 31
0.0
 11
862.2343438306671
 21
-404.4587735279866
 31
0.0
 11
862.9063746814415
 21
-404.2634609671629
 31
0.0
 11
863.572331515592
 21
-404.1973863155124
 31
0.0
  0
SPLINE
  5
297
330
1F
100
AcDbEntity
  8
0
  6
Continuous
 62
     2
100
AcDbSpline
210
0.0
220
0.0
230
1.0
 70
     8
 71
     3
 72
    15
 73
    11
 74
     9
 42
0.000000001
 43
0.0000000001
 44
0.00000001
 40
0.0
 40
0.0
 40
0.0
 40
0.0
 40
0.0935546504520302
 40
0.2794956199517724
 40
0.5663508142662792
 40
0.9466464559820992
 40
1.407189060293121
 40
1.931057478761456
 40
2.498640836102637
 40
3.088531663666464
 40
3.088531663666464
 40
3.088531663666464
 40
3.088531663666464
 10
900.5697302960672
 20
-424.1903310794305
 30
0.0
 10
900.545869091781
 20
-424.1691771532435
 30
0.0
 10
900.474583474575
 20
-424.1059795342592
 30
0.0
 10
900.2728466034512
 20
-424.1082428696391
 30
0.0
 10
899.9948072497326
 20
-424.1028479019583
 30
0.0
 10
899.6171343514587
 20
-424.134328579642
 30
0.0
 10
899.1656047084402
 20
-424.1800487156137
 30
0.0
 10
898.6518073818075
 20
-424.2436287136138
 30
0.0
 10
898.0963707362887
 20
-424.3176003830012
 30
0.0
 10
897.714166950984
 20
-424.3704514839707
 30
0.0
 10
897.519382038134
 20
-424.3973863155125
 30
0.0
 11
900.5697302960672
 21
-424.1903310794305
 31
0.0
 11
900.4949790283958
 21
-424.1340752317032
 31
0.0
 11
900.3110073850522
 21
-424.1070848954339
 31
0.0
 11
900.0241527715905
 21
-424.1076619679229
 31
0.0
 11
899.6447054571742
 21
-424.133049179858
 31
0.0
 11
899.1865149869237
 21
-424.1795355568083
 31
0.0
 11
898.6664562772011
 21
-424.2425994785617
 31
0.0
 11
898.1037812719411
 21
-424.3170824022891
 31
0.0
 11
897.519382038134
 21
-424.3973863155125
 31
0.0
  0
SPLINE
  5
298
330
1F
100
AcDbEntity
  8
0
  6
Continuous
 62
     7
100
AcDbSpline
210
0.0
220
0.0
230
1.0
 70
     8
 71
     3
 72
    11
 73
     7
 74
     5
 42
0.000000001
 43
0.0000000001
 44
0.00000001
 40
0.0
 40
0.0
 40
0.0
 40
0.0
 40
0.5616698755568258
 40
1.135640618277399
 40
1.735680579073472
 40
2.369680620723319
 40
2.369680620723319
 40
2.369680620723319
 40
2.369680620723319
 10
898.4409941523751
 20
-419.1973863155124
 30
0.0
 10
898.3251550203992
 20
-419.3460780424673
 30
0.0
 10
898.0909398072879
 20
-419.6467179139388
 30
0.0
 10
897.5931115840326
 20
-419.9599377843093
 30
0.0
 10
897.0185946876952
 20
-420.1622824599245
 30
0.0
 10
896.6059801557487
 20
-420.1854723114247
 30
0.0
 10
896.3939954299232
 20
-420.1973863155124
 30
0.0
 11
898.4409941523751
 21
-419.1973863155124
 31
0.0
 11
898.071092307508
 21
-419.6200512849205
 31
0.0
 11
897.5919061298596
 21
-419.9359991030385
 31
0.0
 11
897.0245429649736
 21
-420.1313116638621
 31
0.0
 11
896.3939954299232
 21
-420.1973863155124
 31
0.0
  0
SPLINE
  5
299
330
1F
100
AcDbEntity
  8
0
  6
Continuous
 62
     2
100
AcDbSpline
210
0.0
220
0.0
230
1.0
 70
    24
 71
     3
 72
    15
 73
    11
 74
     9
 42
0.000000001
 43
0.0000000001
 44
0.00000001
 40
0.0
 40
0.0
 40
0.0
 40
0.0
 40
0.1560722611549181
 40
0.3061467769380215
 40
0.4444561742898827
 40
0.5656854039199857
 40
0.6651756526247823
 40
0.7391036149991237
 40
0.7695518074995107
 40
0.7999999999998977
 40
0.7999999999998977
 40
0.7999999999998977
 40
0.7999999999998977
 10
897.519382038134
 20
-424.3973863155125
 30
0.0
 10
897.5193820381337
 20
-424.4494104025641
 30
0.0
 10
897.519382038133
 20
-424.5514593282102
 30
0.0
 10
897.519382038132
 20
-424.6996113863067
 30
0.0
 10
897.519382038132
 20
-424.8361491005618
 30
0.0
 10
897.5193820381319
 20
-424.9558253924573
 30
0.0
 10
897.5193820381327
 20
-425.0540412060271
 30
0.0
 10
897.5193820381329
 20
-425.121996673887
 30
0.0
 10
897.5193820381337
 20
-425.166938123012
 30
0.0
 10
897.5193820381339
 20
-425.1872369180122
 30
0.0
 10
897.519382038134
 20
-425.1973863155124
 30
0.0
 11
897.519382038134
 21
-424.3973863155125
 31
0.0
 11
897.5193820381339
 21
-424.5534585766678
 31
0.0
 11
897.519382038134
 21
-424.7035330924512
 31
0.0
 11
897.5193820381337
 21
-424.8418424898033
 31
0.0
 11
897.519382038134
 21
-424.9630717194334
 31
0.0
 11
897.5193820381339
 21
-425.062561968138
 31
0.0
 11
897.519382038134
 21
-425.136489930512
 31
0.0
 11
897.5193820381339
 21
-425.1669381230122
 31
0.0
 11
897.519382038134
 21
-425.1973863155124
 31
0.0
  0
SPLINE
  5
29A
330
1F
100
AcDbEntity
  8
0
  6
Continuous
 62
     7
100
AcDbSpline
210
0.0
220
0.0
230
1.0
 70
     8
 71
     3
 72
    11
 73
     7
 74
     5
 42
0.000000001
 43
0.0000000001
 44
0.00000001
 40
0.0
 40
0.0
 40
0.0
 40
0.0
 40
0.6692266903297335
 40
1.369064141514438
 40
2.090436444182957
 40
2.821427118721657
 40
2.821427118721657
 40
2.821427118721657
 40
2.821427118721657
 10
892.106808351025
 20
-404.1973863155124
 30
0.0
 10
892.3302063999613
 20
-404.2107758011915
 30
0.0
 10
892.7872208337889
 20
-404.2381672292186
 30
0.0
 10
893.4579630479147
 20
-404.4455371089384
 30
0.0
 10
894.1094449246102
 20
-404.7550393788615
 30
0.0
 10
894.4954332054466
 20
-405.0492877725658
 30
0.0
 10
894.6897054583391
 20
-405.1973863155124
 30
0.0
 11
892.106808351025
 21
-404.1973863155124
 31
0.0
 11
892.7727651851757
 21
-404.2634609671629
 31
0.0
 11
893.44479603595
 21
-404.4587735279866
 31
0.0
 11
894.0932981390283
 21
-404.7747213461046
 31
0.0
 11
894.6897054583391
 21
-405.1973863155124
 31
0.0
  0
SPLINE
  5
29B
330
1F
100
AcDbEntity
  8
0
  6
Continuous
 62
     2
100
AcDbSpline
210
0.0
220
0.0
230
1.0
 70
    24
 71
     3
 72
    18
 73
    14
 74
    12
 42
0.000000001
 43
0.0000000001
 44
0.00000001
 40
0.0
 40
0.0
 40
0.0
 40
0.0
 40
0.0304481925002165
 40
0.0608963850004329
 40
0.1451526173759135
 40
0.234314596079173
 40
0.3263171083101497
 40
0.4047224092612964
 40
0.493853223061592
 40
0.6052962396145176
 40
0.6780211922722401
 40
0.7351988545593144
 40
0.7999999999998977
 40
0.7999999999998977
 40
0.7999999999998977
 40
0.7999999999998977
 10
858.1597578284842
 20
-425.1973863155124
 30
0.0
 10
858.159757828484
 20
-425.1872369180123
 30
0.0
 10
858.1597578284834
 20
-425.1669381230122
 30
0.0
 10
858.159757828483
 20
-425.1185539172203
 30
0.0
 10
858.1597578284818
 20
-425.0505984493606
 30
0.0
 10
858.1597578284814
 20
-424.9621248749239
 30
0.0
 10
858.1597578284811
 20
-424.8756016109623
 30
0.0
 10
858.1597578284816
 20
-424.7890887353013
 30
0.0
 10
858.159757828482
 20
-424.6960956915334
 30
0.0
 10
858.1597578284827
 20
-424.6049960971962
 30
0.0
 10
858.1597578284831
 20
-424.5245475533637
 30
0.0
 10
858.1597578284836
 20
-424.459646299902
 30
0.0
 10
858.1597578284841
 20
-424.418986697326
 30
0.0
 10
858.1597578284842
 20
-424.3973863155125
 30
0.0
 11
858.1597578284842
 21
-425.1973863155124
 31
0.0
 11
858.1597578284842
 21
-425.1669381230122
 31
0.0
 11
858.1597578284842
 21
-425.136489930512
 31
0.0
 11
858.1597578284833
 21
-425.0522336981367
 31
0.0
 11
858.1597578284842
 21
-424.9630717194334
 31
0.0
 11
858.1597578284845
 21
-424.8710692072025
 31
0.0
 11
858.1597578284842
 21
-424.7926639062513
 31
0.0
 11
858.1597578284831
 21
-424.7035330924509
 31
0.0
 11
858.159757828483
 21
-424.5920900758979
 31
0.0
 11
858.1597578284833
 21
-424.5193651232402
 31
0.0
 11
858.1597578284839
 21
-424.462187460953
 31
0.0
 11
858.1597578284842
 21
-424.3973863155125
 31
0.0
  0
SPLINE
  5
29C
330
1F
100
AcDbEntity
  8
0
  6
Continuous
 62
     2
100
AcDbSpline
210
0.0
220
0.0
230
1.0
 70
     8
 71
     3
 72
    15
 73
    11
 74
     9
 42
0.000000001
 43
0.0000000001
 44
0.00000001
 40
0.0
 40
0.0
 40
0.0
 40
0.0
 40
0.5898908275640717
 40
1.157474184905861
 40
1.681342603374842
 40
2.141885207685259
 40
2.522180849400364
 40
2.809036043715895
 40
2.994977013216013
 40
3.088531663667749
 40
3.088531663667749
 40
3.088531663667749
 40
3.088531663667749
 10
858.1597578284842
 20
-424.3973863155125
 30
0.0
 10
857.9649729156343
 20
-424.3704514839708
 30
0.0
 10
857.5827691303288
 20
-424.3176003830022
 30
0.0
 10
857.0273324848098
 20
-424.2436287136142
 30
0.0
 10
856.5135351581773
 20
-424.1800487156132
 30
0.0
 10
856.0620055151587
 20
-424.134328579642
 30
0.0
 10
855.684332616885
 20
-424.1028479019589
 30
0.0
 10
855.4062932631662
 20
-424.1082428696396
 30
0.0
 10
855.2045563920418
 20
-424.1059795342579
 30
0.0
 10
855.1332707748362
 20
-424.1691771532434
 30
0.0
 10
855.1094095705502
 20
-424.1903310794305
 30
0.0
 11
858.1597578284842
 21
-424.3973863155125
 31
0.0
 11
857.5753585946768
 21
-424.3170824022898
 31
0.0
 11
857.0126835894163
 21
-424.2425994785621
 31
0.0
 11
856.492624879693
 21
-424.179535556808
 31
0.0
 11
856.0344344094432
 21
-424.1330491798581
 31
0.0
 11
855.6549870950275
 21
-424.1076619679234
 31
0.0
 11
855.3681324815648
 21
-424.1070848954338
 31
0.0
 11
855.1841608382207
 21
-424.1340752317026
 31
0.0
 11
855.1094095705502
 21
-424.1903310794305
 31
0.0
  0
SPLINE
  5
29D
330
1F
100
AcDbEntity
  8
0
  6
Continuous
 62
     7
100
AcDbSpline
210
0.0
220
0.0
230
1.0
 70
     8
 71
     3
 72
    11
 73
     7
 74
     5
 42
0.000000001
 43
0.0000000001
 44
0.00000001
 40
0.0
 40
0.0
 40
0.0
 40
0.0
 40
0.6340000416508761
 40
1.234040002446967
 40
1.808010745167256
 40
2.369680620724253
 40
2.369680620724253
 40
2.369680620724253
 40
2.369680620724253
 10
859.2851444366951
 20
-420.1973863155124
 30
0.0
 10
859.0731597108689
 20
-420.1854723114249
 30
0.0
 10
858.6605451789226
 20
-420.1622824599244
 30
0.0
 10
858.0860282825846
 20
-419.9599377843096
 30
0.0
 10
857.5882000593299
 20
-419.6467179139382
 30
0.0
 10
857.3539848462182
 20
-419.3460780424672
 30
0.0
 10
857.238145714242
 20
-419.1973863155124
 30
0.0
 11
859.2851444366951
 21
-420.1973863155124
 31
0.0
 11
858.6545969016436
 21
-420.131311663862
 31
0.0
 11
858.0872337367576
 21
-419.9359991030383
 31
0.0
 11
857.6080475591095
 21
-419.6200512849204
 31
0.0
 11
857.238145714242
 21
-419.1973863155124
 31
0.0
  0
SPLINE
  5
29E
330
1F
100
AcDbEntity
  8
0
  6
Continuous
 62
     7
100
AcDbSpline
210
0.0
220
0.0
230
1.0
 70
     8
 71
     3
 72
    29
 73
    25
 74
    23
 42
0.000000001
 43
0.0000000001
 44
0.00000001
 40
0.0
 40
0.0
 40
0.0
 40
0.0
 40
0.2653234987067191
 40
0.5253763590939169
 40
0.6467052283608838
 40
0.799740897541836
 40
0.9424019418057048
 40
1.081112248042115
 40
1.209333434100908
 40
1.368383507693246
 40
1.50929205200289
 40
1.661139309685546
 40
1.722944724112629
 40
1.774950457167588
 40
1.837143555006539
 40
1.889699840983833
 40
1.952308620553779
 40
2.008367415265823
 40
2.061410862786369
 40
2.116740336926569
 40
2.152035006391717
 40
2.190660975779478
 40
2.226141999035927
 40
2.263936438737895
 40
2.263936438737895
 40
2.263936438737895
 40
2.263936438737895
 10
970.2157203356122
 20
-425.1973863155124
 30
0.0
 10
970.1272524593485
 20
-425.1938231564091
 30
0.0
 10
969.9520741172103
 20
-425.1867676154492
 30
0.0
 10
969.7394546151437
 20
-425.1476876381528
 30
0.0
 10
969.5661521315799
 20
-425.1065589627826
 30
0.0
 10
969.4323409048459
 20
-425.0686574416168
 30
0.0
 10
969.2947696416709
 20
-425.0233643088538
 30
0.0
 10
969.1668961390387
 20
-424.9754007744023
 30
0.0
 10
969.0360637515813
 20
-424.9201339375504
 30
0.0
 10
968.907360540152
 20
-424.8582125032933
 30
0.0
 10
968.7760135041509
 20
-424.7843637156948
 30
0.0
 10
968.6779262920445
 20
-424.7179180997269
 30
0.0
 10
968.6097828050915
 20
-424.6612653905464
 30
0.0
 10
968.5673133236869
 20
-424.6207315196056
 30
0.0
 10
968.5304827936595
 20
-424.5789365764031
 30
0.0
 10
968.4968333350972
 20
-424.5301684069359
 30
0.0
 10
968.4719945932361
 20
-424.478340240116
 30
0.0
 10
968.4590295915812
 20
-424.4220595204265
 30
0.0
 10
968.4598034738416
 20
-424.3667360654498
 30
0.0
 10
968.4717728126263
 20
-424.3199326404934
 30
0.0
 10
968.4891590502298
 20
-424.2804236303504
 30
0.0
 10
968.5075853321323
 20
-424.2488745200565
 30
0.0
 10
968.5291991443024
 20
-424.2184101262237
 30
0.0
 10
968.5451359472045
 20
-424.199885708011
 30
0.0
 10
968.553355925986
 20
-424.1903310794301
 30
0.0
 11
970.2157203356122
 21
-425.1973863155124
 31
0.0
 11
969.9509411976314
 21
-425.180399203196
 31
0.0
 11
969.6946421142201
 21
-425.1363734158563
 31
0.0
 11
969.5766172095466
 21
-425.1082519579512
 31
0.0
 11
969.4293433125489
 21
-425.0666548991117
 31
0.0
 11
969.2938433179975
 21
-425.0220239118614
 31
0.0
 11
969.1639865865899
 21
-424.9732614431323
 31
0.0
 11
969.0459071115795
 21
-424.9232823462494
 31
0.0
 11
968.9027396194982
 21
-424.8540003493263
 31
0.0
 11
968.7801479361804
 21
-424.7845273544658
 31
0.0
 11
968.6551898668621
 21
-424.6982541225921
 31
0.0
 11
968.6077796149553
 21
-424.6586034320771
 31
0.0
 11
968.5702554199942
 21
-424.6225960570441
 31
0.0
 11
968.5294040242067
 21
-424.5757010160283
 31
0.0
 11
968.499811705837
 21
-424.5322676431124
 31
0.0
 11
968.473342178998
 21
-424.4755294424015
 31
0.0
 11
968.461112328066
 21
-424.420820949427
 31
0.0
 11
968.4618335125621
 21
-424.3677824048493
 31
0.0
 11
968.4751716554641
 21
-424.3140846893473
 31
0.0
 11
968.4892824105624
 21
-424.2817334870845
 31
0.0
 11
968.508612752424
 21
-424.2482924431938
 31
0.0
 11
968.5291704901467
 21
-424.2193738935458
 31
0.0
 11
968.553355925986
 21
-424.1903310794301
 31
0.0
  0
SPLINE
  5
29F
330
1F
100
AcDbEntity
  8
0
  6
Continuous
 62
     7
100
AcDbSpline
210
0.0
220
0.0
230
1.0
 70
     8
 71
     3
 72
     9
 73
     5
 74
     3
 42
0.000000001
 43
0.0000000001
 44
0.00000001
 40
0.0
 40
0.0
 40
0.0
 40
0.0
 40
1.181403805947403
 40
2.144497250746836
 40
2.144497250746836
 40
2.144497250746836
 40
2.144497250746836
 10
968.553355925986
 20
-424.1903310794301
 30
0.0
 10
968.2713220774808
 20
-424.4823659648794
 30
0.0
 10
967.7593711070218
 20
-425.0124709014746
 30
0.0
 10
967.0383709954672
 20
-425.1400779943968
 30
0.0
 10
966.714569933309
 20
-425.1973863155124
 30
0.0
 11
968.553355925986
 21
-424.1903310794301
 31
0.0
 11
967.6438098514661
 21
-424.9442812740913
 31
0.0
 11
966.714569933309
 21
-425.1973863155124
 31
0.0
  0
SPLINE
  5
2A0
330
1F
100
AcDbEntity
  8
0
  6
Continuous
 62
     7
100
AcDbSpline
210
0.0
220
0.0
230
1.0
 70
     8
 71
     3
 72
    27
 73
    23
 74
    21
 42
0.000000001
 43
0.0000000001
 44
0.00000001
 40
0.0
 40
0.0
 40
0.0
 40
0.0
 40
0.0385982766492453
 40
0.0732755113909787
 40
0.111901481321953
 40
0.1471961502264005
 40
0.2025256243576259
 40
0.2555690718791249
 40
0.3116278665812677
 40
0.374236646156475
 40
0.4267929321522267
 40
0.4889860299706089
 40
0.5409917630124229
 40
0.6027971774519663
 40
0.7451909987706561
 40
0.8955580323109502
 40
1.036033428720075
 40
1.182831594763939
 40
1.454416719231311
 40
1.73844988616853
 40
1.987024476640596
 40
2.2638187372609
 40
2.2638187372609
 40
2.2638187372609
 40
2.2638187372609
 10
950.9257839406315
 20
-424.1903310794305
 30
0.0
 10
950.9341757302002
 20
-424.2000920267975
 30
0.0
 10
950.9501068159746
 20
-424.2186223511413
 30
0.0
 10
950.9716897078666
 20
-424.2491063080312
 30
0.0
 10
950.9899808680776
 20
-424.2804236324513
 30
0.0
 10
951.0073670320552
 20
-424.3199326398822
 30
0.0
 10
951.0193363993089
 20
-424.3667360655779
 30
0.0
 10
951.0201102734469
 20
-424.422059520781
 30
0.0
 10
951.007145272819
 20
-424.4783402383451
 30
0.0
 10
950.9823065358187
 20
-424.5301684139416
 30
0.0
 10
950.9486570583665
 20
-424.5789365533056
 30
0.0
 10
950.9118266044921
 20
-424.6207316168778
 30
0.0
 10
950.8693568593617
 20
-424.6612650711656
 30
0.0
 10
950.8036398911346
 20
-424.7159043841444
 30
0.0
 10
950.7058520083026
 20
-424.7827325448229
 30
0.0
 10
950.5800112071345
 20
-424.8537974409869
 30
0.0
 10
950.4487378824109
 20
-424.9175928869194
 30
0.0
 10
950.277273950586
 20
-424.9905502661675
 30
0.0
 10
950.0562192108184
 20
-425.0686352742933
 30
0.0
 10
949.7968509884295
 20
-425.1370470872826
 30
0.0
 10
949.5309019478484
 20
-425.1861836502939
 30
0.0
 10
949.3557169662971
 20
-425.193520727402
 30
0.0
 10
949.2634195310064
 20
-425.1973863155124
 30
0.0
 11
950.9257839406315
 21
-424.1903310794305
 31
0.0
 11
950.9504603798475
 21
-424.2200110560073
 31
0.0
 11
950.9705271141944
 21
-424.2482924431938
 31
0.0
 11
950.9898574563066
 21
-424.2817334875808
 31
0.0
 11
951.0039682111534
 21
-424.3140846893473
 31
0.0
 11
951.0173063540552
 21
-424.3677824048452
 31
0.0
 11
951.0180275385504
 21
-424.420820949427
 31
0.0
 11
951.0057976876221
 21
-424.4755294423945
 31
0.0
 11
950.9793281607814
 21
-424.5322676431124
 31
0.0
 11
950.9497358423996
 21
-424.5757010160437
 31
0.0
 11
950.9088844466243
 21
-424.6225960570441
 31
0.0
 11
950.8713602516722
 21
-424.6586034320685
 31
0.0
 11
950.8239499997554
 21
-424.6982541225921
 31
0.0
 11
950.7070348854816
 21
-424.7795366937172
 31
0.0
 11
950.5764002471204
 21
-424.8540003493263
 31
0.0
 11
950.4501636196972
 21
-424.9156254324892
 31
0.0
 11
950.3151532800285
 21
-424.9732614431323
 31
0.0
 11
950.0590993886344
 21
-425.0637870445577
 31
0.0
 11
949.7844977523984
 21
-425.1363734158563
 31
0.0
 11
949.5396006551694
 21
-425.1789731660641
 31
0.0
 11
949.2634195310064
 21
-425.1973863155124
 31
0.0
  0
SPLINE
  5
2A1
330
1F
100
AcDbEntity
  8
0
  6
Continuous
 62
     7
100
AcDbSpline
210
0.0
220
0.0
230
1.0
 70
     8
 71
     3
 72
     9
 73
     5
 74
     3
 42
0.000000001
 43
0.0000000001
 44
0.00000001
 40
0.0
 40
0.0
 40
0.0
 40
0.0
 40
0.9630934447999506
 40
2.144497250747436
 40
2.144497250747436
 40
2.144497250747436
 40
2.144497250747436
 10
952.7645699333094
 20
-425.1973863155124
 30
0.0
 10
952.4407688711509
 20
-425.1400779943969
 30
0.0
 10
951.7197687595963
 20
-425.0124709014749
 30
0.0
 10
951.2078177891373
 20
-424.4823659648795
 30
0.0
 10
950.9257839406315
 20
-424.1903310794305
 30
0.0
 11
952.7645699333094
 21
-425.1973863155124
 31
0.0
 11
951.8353300151517
 21
-424.9442812740914
 31
0.0
 11
950.9257839406315
 21
-424.1903310794305
 31
0.0
  0
SPLINE
  5
2A2
330
1F
100
AcDbEntity
  8
0
  6
Continuous
 62
     2
100
AcDbSpline
210
0.0
220
0.0
230
1.0
 70
     8
 71
     3
 72
    13
 73
     9
 74
     7
 42
0.000000001
 43
0.0000000001
 44
0.00000001
 40
0.0
 40
0.0
 40
0.0
 40
0.0
 40
0.2254667574205626
 40
0.5788634415603736
 40
1.082009899228312
 40
1.71546412677605
 40
2.443153209659994
 40
3.220060774604342
 40
3.220060774604342
 40
3.220060774604342
 40
3.220060774604342
 10
945.4895699333093
 20
-402.1973863155124
 30
0.0
 10
945.5177696404309
 20
-402.125368571479
 30
0.0
 10
945.5901695824579
 20
-401.9404701908164
 30
0.0
 10
945.9426448747699
 20
-401.780798214048
 30
0.0
 10
946.4038201426457
 20
-401.6249008306108
 30
0.0
 10
947.0207036513464
 20
-401.511981895071
 30
0.0
 10
947.7285219730786
 20
-401.435171707144
 30
0.0
 10
948.2304146294593
 20
-401.425779109196
 30
0.0
 10
948.4895699333093
 20
-401.4209291802049
 30
0.0
 11
945.4895699333093
 21
-402.1973863155124
 31
0.0
 11
945.5917932270058
 21
-401.9964244747667
 31
0.0
 11
945.8914937219553
 21
-401.8091577478586
 31
0.0
 11
946.3682501553059
 21
-401.6483483562125
 31
0.0
 11
946.9895699333094
 21
-401.5249547113864
 31
0.0
 11
947.7131130050094
 21
-401.4473865154667
 31
0.0
 11
948.4895699333093
 21
-401.4209291802049
 31
0.0
  0
SPLINE
  5
2A3
330
1F
100
AcDbEntity
  8
0
  6
Continuous
 62
     2
100
AcDbSpline
210
0.0
220
0.0
230
1.0
 70
     8
 71
     3
 72
    13
 73
     9
 74
     7
 42
0.000000001
 43
0.0000000001
 44
0.00000001
 40
0.0
 40
0.0
 40
0.0
 40
0.0
 40
0.7794675774180412
 40
1.503218404691382
 40
2.125191552782992
 40
2.606481797079886
 40
2.920093642794024
 40
3.067397694894926
 40
3.067397694894926
 40
3.067397694894926
 40
3.067397694894926
 10
970.9895699333091
 20
-424.1903310794305
 30
0.0
 10
971.2482786671445
 20
-424.1638011700776
 30
0.0
 10
971.7472034984138
 20
-424.1126377122143
 30
0.0
 10
972.4543025133785
 20
-424.0989138299234
 30
0.0
 10
973.068780374385
 20
-424.1166831839073
 30
0.0
 10
973.5242805495177
 20
-424.1910663821965
 30
0.0
 10
973.8577701316962
 20
-424.2375853974853
 30
0.0
 10
973.957649495843
 20
-424.3586843281029
 30
0.0
 10
973.9895699333091
 20
-424.3973863155125
 30
0.0
 11
970.9895699333091
 21
-424.1903310794305
 31
0.0
 11
971.7660267735822
 21
-424.1218878963165
 31
0.0
 11
972.4895700442055
 21
-424.1045559647091
 31
0.0
 11
973.1108901980124
 21
-424.133049179858
 31
0.0
 11
973.5876461942237
 21
-424.1989583522318
 31
0.0
 11
973.887347419456
 21
-424.2913248140866
 31
0.0
 11
973.9895699333091
 21
-424.3973863155125
 31
0.0
  0
SPLINE
  5
2A4
330
1F
100
AcDbEntity
  8
0
  6
Continuous
 62
     2
100
AcDbSpline
210
0.0
220
0.0
230
1.0
 70
    24
 71
     3
 72
    15
 73
    11
 74
     9
 42
0.000000001
 43
0.0000000001
 44
0.00000001
 40
0.0
 40
0.0
 40
0.0
 40
0.0
 40
0.041250922735685
 40
0.0825018454713131
 40
0.1815917284270654
 40
0.3129909185541919
 40
0.4698343919763488
 40
0.6439276448943474
 40
0.8261752226781027
 40
1.007055236081897
 40
1.007055236081897
 40
1.007055236081897
 40
1.007055236081897
 10
970.9895699333091
 20
-425.1973863155124
 30
0.0
 10
970.9895699333092
 20
-425.1836360079339
 30
0.0
 10
970.9895699333093
 20
-425.1561353927767
 30
0.0
 10
970.9895699333106
 20
-425.0956048166345
 30
0.0
 10
970.9895699333106
 20
-425.0050248180282
 30
0.0
 10
970.9895699333108
 20
-424.875913969193
 30
0.0
 10
970.9895699333109
 20
-424.7218019970376
 30
0.0
 10
970.9895699333105
 20
-424.5507405623296
 30
0.0
 10
970.9895699333094
 20
-424.3716669476275
 30
0.0
 10
970.9895699333091
 20
-424.2506244172318
 30
0.0
 10
970.9895699333091
 20
-424.1903310794305
 30
0.0
 11
970.9895699333091
 21
-425.1973863155124
 31
0.0
 11
970.9895699333091
 21
-425.1561353927766
 31
0.0
 11
970.9895699333091
 21
-425.1148844700408
 31
0.0
 11
970.9895699333089
 21
-425.0157945870848
 31
0.0
 11
970.9895699333091
 21
-424.8843953969576
 31
0.0
 11
970.9895699333091
 21
-424.7275519235354
 31
0.0
 11
970.9895699333091
 21
-424.5534586706176
 31
0.0
 11
970.9895699333091
 21
-424.3712110928341
 31
0.0
 11
970.9895699333091
 21
-424.1903310794305
 31
0.0
  0
SPLINE
  5
2A5
330
1F
100
AcDbEntity
  8
0
  6
Continuous
 62
     2
100
AcDbSpline
210
0.0
220
0.0
230
1.0
 70
     8
 71
     3
 72
    13
 73
     9
 74
     7
 42
0.000000001
 43
0.0000000001
 44
0.00000001
 40
0.0
 40
0.0
 40
0.0
 40
0.0
 40
0.2254667574207172
 40
0.5788634415610103
 40
1.082009899228499
 40
1.715464126775669
 40
2.443153209659958
 40
3.220060774604081
 40
3.220060774604081
 40
3.220060774604081
 40
3.220060774604081
 10
973.9895699333091
 20
-402.1973863155124
 30
0.0
 10
973.9613702261869
 20
-402.1253685714792
 30
0.0
 10
973.8889702841607
 20
-401.9404701908161
 30
0.0
 10
973.5364949918473
 20
-401.7807982140482
 30
0.0
 10
973.0753197239721
 20
-401.624900830611
 30
0.0
 10
972.4584362152718
 20
-401.511981895071
 30
0.0
 10
971.7506178935394
 20
-401.4351717071441
 30
0.0
 10
971.2487252371593
 20
-401.425779109196
 30
0.0
 10
970.9895699333091
 20
-401.4209291802049
 30
0.0
 11
973.9895699333091
 21
-402.1973863155124
 31
0.0
 11
973.8873466396122
 21
-401.9964244747667
 31
0.0
 11
973.5876461446622
 21
-401.8091577478586
 31
0.0
 11
973.1108897113121
 21
-401.6483483562125
 31
0.0
 11
972.4895699333091
 21
-401.5249547113865
 31
0.0
 11
971.7660268616088
 21
-401.4473865154668
 31
0.0
 11
970.9895699333091
 21
-401.4209291802049
 31
0.0
  0
SPLINE
  5
2A6
330
1F
100
AcDbEntity
  8
0
  6
Continuous
 62
     2
100
AcDbSpline
210
0.0
220
0.0
230
1.0
 70
    24
 71
     3
 72
    15
 73
    11
 74
     9
 42
0.000000001
 43
0.0000000001
 44
0.00000001
 40
0.0
 40
0.0
 40
0.0
 40
0.0
 40
0.1808800134030548
 40
0.3631275911866396
 40
0.5372208441040698
 40
0.6940643175263972
 40
0.8254635076539785
 40
0.9245533906098444
 40
0.9658043133458705
 40
1.007055236081897
 40
1.007055236081897
 40
1.007055236081897
 40
1.007055236081897
 10
948.4895699333093
 20
-424.1903310794305
 30
0.0
 10
948.489569933309
 20
-424.2506244172314
 30
0.0
 10
948.4895699333088
 20
-424.3716669476272
 30
0.0
 10
948.4895699333082
 20
-424.5507405623284
 30
0.0
 10
948.489569933309
 20
-424.7218019970362
 30
0.0
 10
948.4895699333084
 20
-424.8759139691919
 30
0.0
 10
948.4895699333096
 20
-425.0050248180273
 30
0.0
 10
948.489569933309
 20
-425.0956048166336
 30
0.0
 10
948.4895699333094
 20
-425.1561353927764
 30
0.0
 10
948.4895699333093
 20
-425.1836360079337
 30
0.0
 10
948.4895699333093
 20
-425.1973863155124
 30
0.0
 11
948.4895699333093
 21
-424.1903310794305
 31
0.0
 11
948.4895699333091
 21
-424.371211092834
 31
0.0
 11
948.4895699333093
 21
-424.5534586706178
 31
0.0
 11
948.4895699333093
 21
-424.7275519235353
 31
0.0
 11
948.4895699333093
 21
-424.8843953969576
 31
0.0
 11
948.4895699333093
 21
-425.015794587085
 31
0.0
 11
948.4895699333093
 21
-425.1148844700406
 31
0.0
 11
948.4895699333093
 21
-425.1561353927765
 31
0.0
 11
948.4895699333093
 21
-425.1973863155124
 31
0.0
  0
SPLINE
  5
2A7
330
1F
100
AcDbEntity
  8
0
  6
Continuous
 62
     2
100
AcDbSpline
210
0.0
220
0.0
230
1.0
 70
     8
 71
     3
 72
    13
 73
     9
 74
     7
 42
0.000000001
 43
0.0000000001
 44
0.00000001
 40
0.0
 40
0.0
 40
0.0
 40
0.0
 40
0.1473040521005713
 40
0.4609158978143839
 40
0.9422061421115852
 40
1.56417929020341
 40
2.28793011747559
 40
3.067397694894706
 40
3.067397694894706
 40
3.067397694894706
 40
3.067397694894706
 10
945.4895699333093
 20
-424.3973863155125
 30
0.0
 10
945.5214903707754
 20
-424.3586843281032
 30
0.0
 10
945.6213697349226
 20
-424.2375853974862
 30
0.0
 10
945.9548593171002
 20
-424.1910663821958
 30
0.0
 10
946.4103594922334
 20
-424.1166831839074
 30
0.0
 10
947.0248373532393
 20
-424.0989138299241
 30
0.0
 10
947.7319363682046
 20
-424.1126377122132
 30
0.0
 10
948.230861199474
 20
-424.1638011700772
 30
0.0
 10
948.4895699333093
 20
-424.1903310794305
 30
0.0
 11
945.4895699333093
 21
-424.3973863155125
 31
0.0
 11
945.5917924471626
 21
-424.2913248140871
 31
0.0
 11
945.8914936723943
 21
-424.1989583522317
 31
0.0
 11
946.3682496686059
 21
-424.1330491798581
 31
0.0
 11
946.989569822413
 21
-424.1045559647094
 31
0.0
 11
947.7131130930352
 21
-424.1218878963159
 31
0.0
 11
948.4895699333093
 21
-424.1903310794305
 31
0.0
  0
SPLINE
  5
2A8
330
1F
100
AcDbEntity
  8
0
  6
Continuous
 62
     7
100
AcDbSpline
210
0.0
220
0.0
230
1.0
 70
     8
 71
     3
 72
    15
 73
    11
 74
     9
 42
0.000000001
 43
0.0000000001
 44
0.00000001
 40
0.0
 40
0.0
 40
0.0
 40
0.0
 40
0.526168567152609
 40
1.053925226851343
 40
3.233529641920073
 40
5.418608348401015
 40
7.603687054880449
 40
9.78329146994017
 40
10.30869214209962
 40
10.83251773737407
 40
10.83251773737407
 40
10.83251773737407
 40
10.83251773737407
 10
964.965510258511
 20
-399.2011670526404
 30
0.0
 10
964.8083209191187
 20
-399.123279195584
 30
0.0
 10
964.4934678020302
 20
-398.9672684117669
 30
0.0
 10
963.501071454405
 20
-398.5457905824055
 30
0.0
 10
961.9259892609923
 20
-398.0827065846313
 30
0.0
 10
959.7395695023549
 20
-397.8759871630533
 30
0.0
 10
957.5531523272382
 20
-398.0827079253858
 30
0.0
 10
955.9788228484017
 20
-398.5455639243833
 30
0.0
 10
954.9878336410952
 20
-398.966335504468
 30
0.0
 10
954.674329628671
 20
-399.1215389493793
 30
0.0
 10
954.5178129384784
 20
-399.1990241842125
 30
0.0
 11
964.965510258511
 21
-399.2011670526404
 31
0.0
 11
964.4917974558272
 21
-398.9721484026302
 31
0.0
 11
964.0064902041796
 21
-398.7647744314347
 31
0.0
 11
961.9148269206149
 21
-398.1518958756335
 31
0.0
 11
959.7395699333086
 21
-397.9449514425944
 31
0.0
 11
957.5643129460029
 21
-398.1518958756335
 31
0.0
 11
955.4726496624385
 21
-398.7647744314347
 31
0.0
 11
954.9894874621714
 21
-398.9711724815992
 31
0.0
 11
954.5178129384784
 21
-399.1990241842125
 31
0.0
  0
SPLINE
  5
2A9
330
1F
100
AcDbEntity
  8
0
  6
Continuous
 62
     7
100
AcDbSpline
210
0.0
220
0.0
230
1.0
 70
     8
 71
     3
 72
    11
 73
     7
 74
     5
 42
0.000000001
 43
0.0000000001
 44
0.00000001
 40
0.0
 40
0.0
 40
0.0
 40
0.0
 40
2.185078708086626
 40
4.364683123443826
 40
4.890083795309915
 40
5.413909389945712
 40
5.413909389945712
 40
5.413909389945712
 40
5.413909389945712
 10
959.7395699333092
 20
-397.9449514425944
 30
0.0
 10
959.0101548878176
 20
-397.9845121578143
 30
0.0
 10
957.5531522078011
 20
-398.0635344933542
 30
0.0
 10
955.9788228542652
 20
-398.5466263973794
 30
0.0
 10
954.9878336398949
 20
-398.9662210321413
 30
0.0
 10
954.6743296282418
 20
-399.1215008301625
 30
0.0
 10
954.5178129384784
 20
-399.1990241842125
 30
0.0
 11
959.7395699333092
 21
-397.9449514425944
 31
0.0
 11
957.5643129460029
 21
-398.1518958756335
 31
0.0
 11
955.4726496624385
 21
-398.7647744314347
 31
0.0
 11
954.9894874621714
 21
-398.9711724815992
 31
0.0
 11
954.5178129384784
 21
-399.1990241842125
 31
0.0
  0
ARC
  5
2AA
102
{ACAD_REACTORS
330
309
102
}
330
1F
100
AcDbEntity
  8
1
  6
Continuous
 62
     7
100
AcDbCircle
 10
998.9127919477993
 20
-596.0121321282004
 30
0.0
 40
0.3333333333332575
100
AcDbArc
 50
180.0
 51
299.9816393688506
  0
ARC
  5
2AB
102
{ACAD_REACTORS
330
309
102
}
330
1F
100
AcDbEntity
  8
1
  6
Continuous
 62
     7
100
AcDbCircle
 10
998.9127919477993
 20
-591.1671318078656
 30
0.0
 40
0.3333333333333709
100
AcDbArc
 50
60.01836063114937
 51
180.0
  0
ARC
  5
2AC
330
1F
100
AcDbEntity
  8
1
  6
Continuous
 62
     7
100
AcDbCircle
 10
1004.579273480693
 20
-593.589631968033
 30
0.0
 40
0.166666666666373
100
AcDbArc
 50
299.9816393686644
 51
60.01836063131604
  0
ARC
  5
2AD
330
1F
100
AcDbEntity
  8
1
  6
Continuous
 62
     7
100
AcDbCircle
 10
987.9129770815728
 20
-593.589631968033
 30
0.0
 40
0.1666666666666154
100
AcDbArc
 50
119.9816393688871
 51
240.0183606311324
  0
ARC
  5
2AE
102
{ACAD_REACTORS
330
30B
102
}
330
1F
100
AcDbEntity
  8
1
  6
Continuous
 62
     7
100
AcDbCircle
 10
993.9127919477993
 20
-595.8196108200003
 30
0.0
 40
0.6666666666666288
100
AcDbArc
 50
180.0000000000097
 51
240.0183606311578
  0
ARC
  5
2AF
102
{ACAD_REACTORS
330
30C
102
}
330
1F
100
AcDbEntity
  8
1
  6
Continuous
 62
     7
100
AcDbCircle
 10
996.2461252811327
 20
-593.2562986346998
 30
0.0
 40
0.1666666666667081
100
AcDbArc
 50
209.9999999999617
 51
330.0000000000188
  0
MTEXT
  5
2B1
330
1F
100
AcDbEntity
  8
1
 62
     7
100
AcDbMText
 10
861.8461252811328
 20
-593.589631968033
 30
0.0
 40
4.5
 41
0.0
 71
     4
 72
     1
  1
CQS 08 VA\PEMC plastic hood side entry PG 16
  7
CONVERTER_11
 73
     1
 44
0.90036014405762
  0
MTEXT
  5
2B2
330
1F
100
AcDbEntity
  8
1
 62
     7
100
AcDbMText
 10
974.2461252811327
 20
-596.028992547277
 30
0.0
 40
4.5
 41
0.0
 71
     5
 72
     1
  1
1:1
  7
CONVERTER_11
 73
     1
 44
1.32052821128451
  0
MTEXT
  5
2B3
330
1F
100
AcDbEntity
  8
1
 62
     7
100
AcDbMText
 10
974.2461252811327
 20
-589.828992547277
 30
0.0
 40
3.0
 41
0.0
 71
     5
 72
     1
  1
Scale
  7
CONVERTER_11
 73
     1
 44
1.32052821128451
  0
MTEXT
  5
2B4
330
1F
100
AcDbEntity
  8
1
 62
     7
100
AcDbMText
 10
838.16982459239
 20
-597.339631968033
 30
0.0
 40
3.0
 41
0.0
 71
     4
 72
     1
  1
N. Visentin
  7
CONVERTER_11
 73
     1
 44
1.32052821128451
  0
MTEXT
  5
2B5
330
1F
100
AcDbEntity
  8
1
 62
     7
100
AcDbMText
 10
827.56982459239
 20
-597.339631968033
 30
0.0
 40
3.0
 41
0.0
 71
     4
 72
     1
  1
Sign.
  7
CONVERTER_11
 73
     1
 44
1.32052821128451
  0
MTEXT
  5
2B6
330
1F
100
AcDbEntity
  8
1
 62
     7
100
AcDbMText
 10
838.16982459239
 20
-589.828992547277
 30
0.0
 40
3.0
 41
0.0
 71
     4
 72
     1
  1
16/03/09
  7
CONVERTER_11
 73
     1
 44
1.32052821128451
  0
MTEXT
  5
2B7
330
1F
100
AcDbEntity
  8
1
 62
     7
100
AcDbMText
 10
827.56982459239
 20
-589.828992547277
 30
0.0
 40
3.0
 41
0.0
 71
     4
 72
     1
  1
Date
  7
CONVERTER_11
 73
     1
 44
1.32052821128451
  0
MTEXT
  5
2B8
330
1F
100
AcDbEntity
  8
1
 62
     7
100
AcDbMText
 10
820.5698245923899
 20
-454.5896319680333
 30
0.0
 40
4.0
 41
0.0
 71
     5
 72
     1
  1
Diritti riservati      All rights reserved
  7
CONVERTER_11
 11
0.0
 21
1.0
 31
0.0
 73
     1
 44
1.32052821128451
  0
DIMENSION
  5
2C4
330
1F
100
AcDbEntity
  8
1
100
AcDbDimension
  2
*D1
 10
853.839569933309
 20
-472.864398834378
 30
0.0
 11
877.839569933309
 21
-469.364398834378
 31
0.0
 70
    32
  1
<>
 71
     5
 42
-1.0
 53
0.00013888888889
  3
ME10_DIM_10
100
AcDbAlignedDimension
 13
901.839569933309
 23
-453.1973863155124
 33
0.0
 14
853.839569933309
 24
-453.1973863155124
 34
0.0
100
AcDbRotatedDimension
  0
DIMENSION
  5
2CF
330
1F
100
AcDbEntity
  8
1
100
AcDbDimension
  2
*D2
 10
945.4895699333093
 20
-473.014398834378
 30
0.0
 11
959.7395699333092
 21
-469.364398834378
 31
0.0
 70
    32
  1
<>
 71
     5
 42
-1.0
 53
0.00013888888889
  3
ME10_DIM_11
100
AcDbAlignedDimension
 13
973.9895699333091
 23
-453.1973863155124
 33
0.0
 14
945.4895699333093
 24
-453.1973863155124
 34
0.0
100
AcDbRotatedDimension
  0
DIMENSION
  5
2DA
330
1F
100
AcDbEntity
  8
1
100
AcDbDimension
  2
*D3
 10
942.3395699333092
 20
-488.245425634519
 30
0.0
 11
959.7395699333092
 21
-484.595425634519
 31
0.0
 70
    32
  1
<>
 71
     5
 42
-1.0
 53
0.00013888888889
  3
ME10_DIM_12
100
AcDbAlignedDimension
 13
977.1395699333092
 23
-444.6973863155124
 33
0.0
 14
942.3395699333092
 24
-444.6973863155124
 34
0.0
100
AcDbRotatedDimension
  0
DIMENSION
  5
2E5
330
1F
100
AcDbEntity
  8
1
100
AcDbDimension
  2
*D4
 10
994.105491766693
 20
-453.1973863155124
 30
0.0
 11
990.605491766693
 21
-426.1973863155124
 31
0.0
 70
    32
  1
<>
 71
     5
 42
-1.0
 53
90.0
  3
ME10_DIM_13
100
AcDbAlignedDimension
 13
970.9895699333091
 23
-399.1973863155124
 33
0.0
 14
966.589569933309
 24
-453.1973863155124
 34
0.0
 50
90.0
100
AcDbRotatedDimension
  0
DIMENSION
  5
2F0
330
1F
100
AcDbEntity
  8
1
100
AcDbDimension
  2
*D5
 10
915.9814399222466
 20
-394.982478397483
 30
0.0
 11
922.682679288982
 21
-404.7302161324509
 31
0.0
 70
    32
  1
Pg 16
 71
     5
 42
-1.0
 53
-74.99999999999775
  3
ME10_DIM_14
100
AcDbAlignedDimension
 13
910.6970047076262
 23
-419.4850973688406
 33
0.0
 14
904.9253400018391
 24
-397.9449514425944
 34
0.0
 50
-74.99999999999775
100
AcDbRotatedDimension
  0
DIMENSION
  5
2FB
330
1F
100
AcDbEntity
  8
1
100
AcDbDimension
  2
*D6
 10
901.839569933309
 20
-473.014398834378
 30
0.0
 11
906.145348274044
 21
-469.364398834378
 31
0.0
 70
    32
  1
8,6
 71
     5
 42
-1.0
 53
0.00013888888889
  3
ME10_DIM_15
100
AcDbAlignedDimension
 13
910.4511266147788
 23
-418.567467833866
 33
0.0
 14
901.839569933309
 24
-453.1973863155124
 34
0.0
100
AcDbRotatedDimension
  0
DIMENSION
  5
308
330
1F
100
AcDbEntity
  8
1
100
AcDbDimension
  2
*D7
 10
994.105491766693
 20
-399.1973863155124
 30
0.0
 11
990.4554917666931
 21
-387.845769850671
 31
0.0
 70
    32
  1
1,3
 71
     5
 42
-1.0
 53
90.0
  3
ME10_DIM_16
100
AcDbAlignedDimension
 13
959.7395699333092
 23
-397.9449514425944
 33
0.0
 14
970.9895699333091
 24
-399.1973863155124
 34
0.0
 50
90.0
100
AcDbRotatedDimension
  0
HATCH
  5
309
330
1F
100
AcDbEntity
  8
1
  6
Continuous
 62
     7
100
AcDbHatch
 10
0.0
 20
0.0
 30
0.0
210
0.0
220
0.0
230
1.0
  2
SOLID
 70
     1
 71
     1
 91
        1
 92
        1
 93
       14
 72
     1
 10
1000.079551129969
 20
-592.2250911057793
 11
999.2461252811327
 21
-591.7442685006811
 72
     1
 10
999.2461252811327
 20
-591.7442685006811
 11
999.2461252811327
 21
-593.2562986346998
 72
     1
 10
999.2461252811327
 20
-593.2562986346998
 11
1000.246125281133
 21
-593.2562986346998
 72
     2
 10
1000.246125281133
 20
-593.589631968033
 40
0.3333333333333712
 50
270.0
 51
450.0
 73
     0
 72
     1
 10
1000.246125281133
 20
-593.9229653013664
 11
999.2461252811327
 21
-593.9229653013664
 72
     1
 10
999.2461252811327
 20
-593.9229653013664
 11
999.2461252811327
 21
-595.4349954353851
 72
     1
 10
999.2461252811327
 20
-595.4349954353851
 11
1000.079551129969
 21
-594.9541728302868
 72
     2
 10
1000.246125281133
 20
-595.2429013589698
 40
0.3333333333332573
 50
240.0183606310406
 51
420.0183606311832
 73
     0
 72
     1
 10
1000.412699432296
 20
-595.5316298876527
 11
999.0793660989625
 21
-596.3008606568833
 72
     2
 10
998.9127919477993
 20
-596.0121321282004
 40
0.3333333333332575
 50
60.01836063114938
 51
180.0
 73
     0
 72
     1
 10
998.579458614466
 20
-596.0121321282004
 11
998.579458614466
 21
-591.1671318078656
 72
     2
 10
998.9127919477993
 20
-591.1671318078656
 40
0.3333333333333709
 50
180.0
 51
299.9816393688506
 73
     0
 72
     1
 10
999.0793660989625
 20
-590.8784032791827
 11
1000.412699432296
 21
-591.6476340484136
 72
     2
 10
1000.246125281133
 20
-591.9363625770964
 40
0.3333333333337686
 50
299.9816393688265
 51
479.9816393689691
 73
     0
 97
       14
330
5C
330
2AB
330
73
330
2AA
330
55
330
242
330
56
330
57
330
58
330
243
330
59
330
5A
330
5B
330
244
 75
     0
 76
     1
 98
        1
 10
0.0
 20
0.0
  0
HATCH
  5
30A
330
1F
100
AcDbEntity
  8
1
  6
Continuous
 62
     7
100
AcDbHatch
 10
0.0
 20
0.0
 30
0.0
210
0.0
220
0.0
230
1.0
  2
SOLID
 70
     1
 71
     1
 91
        1
 92
        1
 93
        5
 72
     1
 10
992.5794586144659
 20
-591.9363625770964
 11
992.5794586144659
 21
-595.0503800507697
 72
     1
 10
992.5794586144659
 20
-595.0503800507697
 11
992.5794586144659
 21
-595.2429013589698
 72
     2
 10
992.2461252811327
 20
-595.2429013589698
 40
0.3333333333333712
 50
0.0
 51
180.0
 73
     0
 72
     1
 10
991.9127919477993
 20
-595.2429013589698
 11
991.9127919477993
 21
-591.9363625770964
 72
     2
 10
992.2461252811327
 20
-591.9363625770964
 40
0.3333333333332575
 50
180.0
 51
360.0
 73
     0
 97
        5
330
5F
330
5E
330
245
330
5D
330
246
 75
     0
 76
     1
 98
        1
 10
0.0
 20
0.0
  0
HATCH
  5
30B
330
1F
100
AcDbEntity
  8
1
  6
Continuous
 62
     7
100
AcDbHatch
 10
0.0
 20
0.0
 30
0.0
210
0.0
220
0.0
230
1.0
  2
SOLID
 70
     1
 71
     1
 91
        1
 92
        1
 93
        7
 72
     1
 10
993.9127919477993
 20
-591.1671318078656
 11
993.9127919477993
 21
-595.8196108200003
 72
     1
 10
993.9127919477993
 20
-595.8196108200003
 11
996.0793660989625
 21
-597.0695574456714
 72
     2
 10
995.9127919477993
 20
-597.3582859743543
 40
0.3333333333333709
 50
299.9816393688506
 51
479.9816393688507
 73
     0
 72
     1
 10
995.7462177966361
 20
-597.6470145030372
 11
993.579643645473
 21
-596.3970678773661
 72
     2
 10
993.9127919477993
 20
-595.8196108200003
 40
0.6666666666666288
 50
119.9816393688422
 51
179.9999999999902
 73
     0
 72
     1
 10
993.2461252811327
 20
-595.8196108200004
 11
993.2461252811327
 21
-591.1671318078656
 72
     2
 10
993.5794586144659
 20
-591.1671318078656
 40
0.3333333333333712
 50
180.0
 51
360.0
 73
     0
 97
        7
330
62
330
61
330
247
330
60
330
2AE
330
63
330
248
 75
     0
 76
     1
 98
        1
 10
0.0
 20
0.0
  0
HATCH
  5
30C
330
1F
100
AcDbEntity
  8
1
  6
Continuous
 62
     7
100
AcDbHatch
 10
0.0
 20
0.0
 30
0.0
210
0.0
220
0.0
230
1.0
  2
SOLID
 70
     1
 71
     1
 91
        1
 92
        1
 93
       16
 72
     2
 10
994.8444248269412
 20
-590.3584146559984
 40
0.2649662124753319
 50
30.00000000001207
 51
180.0
 73
     1
 72
     1
 10
994.5794586144659
 20
-590.3584146559984
 11
994.5794586144659
 21
-593.589631968033
 72
     1
 10
994.5794586144659
 20
-593.589631968033
 11
994.5794586144659
 21
-595.2420468954001
 72
     2
 10
994.9127919477993
 20
-595.2420468954001
 40
0.3333333333333712
 50
180.0
 51
360.0
 73
     1
 72
     1
 10
995.2461252811327
 20
-595.2420468954001
 11
995.2461252811327
 21
-593.589631968033
 72
     1
 10
995.2461252811327
 20
-593.589631968033
 11
995.2461252811327
 21
-591.8575811604642
 72
     1
 10
995.2461252811327
 20
-591.8575811604642
 11
996.1017877138352
 21
-593.339631968033
 72
     2
 10
996.2461252811327
 20
-593.2562986346998
 40
0.1666666666667081
 50
209.9999999999617
 51
330.0000000000188
 73
     1
 72
     1
 10
996.39046284843
 20
-593.339631968033
 11
997.2461252811327
 21
-591.8575811604642
 72
     1
 10
997.2461252811327
 20
-591.8575811604642
 11
997.2461252811327
 21
-593.589631968033
 72
     1
 10
997.2461252811327
 20
-593.589631968033
 11
997.2461252811327
 21
-596.7813628974312
 72
     2
 10
997.579458614466
 20
-596.7813628974312
 40
0.3333333333333712
 50
180.0
 51
360.0
 73
     1
 72
     1
 10
997.9127919477993
 20
-596.7813628974312
 11
997.9127919477993
 21
-590.3584146559984
 72
     2
 10
997.647825735324
 20
-590.3584146559984
 40
0.2649662124753149
 50
0.0
 51
149.9999999999756
 73
     1
 72
     1
 10
997.4183582641759
 20
-590.2259315497607
 11
996.2461252811327
 21
-592.2562986346998
 72
     1
 10
996.2461252811327
 20
-592.2562986346998
 11
995.0738922980894
 21
-590.2259315497607
 97
       16
330
64
330
249
330
65
330
24A
330
66
330
72
330
71
330
2AF
330
70
330
6F
330
67
330
24B
330
68
330
6A
330
24C
330
69
 75
     0
 76
     1
 98
        1
 10
0.0
 20
0.0
  0
ENDSEC
  0
SECTION
  2
OBJECTS
  0
DICTIONARY
  5
C
330
0
100
AcDbDictionary
281
     1
  3
ACAD_GROUP
350
D
  3
ACAD_LAYOUT
350
1A
  3
ACAD_MATERIAL
350
3B
  3
ACAD_MLEADERSTYLE
350
30F
  3
ACAD_MLINESTYLE
350
17
  3
ACAD_PLOTSETTINGS
350
19
  3
ACAD_PLOTSTYLENAME
350
E
  3
ACAD_VISUALSTYLE
350
2A
  3
AcDbVariableDictionary
350
30D
  0
DICTIONARY
  5
D
102
{ACAD_REACTORS
330
C
102
}
330
C
100
AcDbDictionary
281
     1
  0
DICTIONARY
  5
1A
102
{ACAD_REACTORS
330
C
102
}
330
C
100
AcDbDictionary
281
     1
  3
Layout1
350
1E
  3
Layout2
350
26
  3
Model
350
22
  0
DICTIONARY
  5
3B
102
{ACAD_REACTORS
330
C
102
}
330
C
100
AcDbDictionary
281
     1
  3
ByBlock
350
3D
  3
ByLayer
350
3C
  3
Global
350
3E
  0
DICTIONARY
  5
30F
102
{ACAD_REACTORS
330
C
102
}
330
C
100
AcDbDictionary
281
     1
  0
DICTIONARY
  5
17
102
{ACAD_REACTORS
330
C
102
}
330
C
100
AcDbDictionary
281
     1
  3
Standard
350
18
  0
DICTIONARY
  5
19
102
{ACAD_REACTORS
330
C
102
}
330
C
100
AcDbDictionary
281
     1
  0
ACDBDICTIONARYWDFLT
  5
E
102
{ACAD_REACTORS
330
C
102
}
330
C
100
AcDbDictionary
281
     1
  3
Normal
350
F
100
AcDbDictionaryWithDefault
340
F
  0
DICTIONARY
  5
2A
102
{ACAD_REACTORS
330
C
102
}
330
C
100
AcDbDictionary
281
     1
  3
2dWireframe
350
2F
  3
3D Hidden
350
31
  3
3dWireframe
350
30
  3
Basic
350
32
  3
Brighten
350
36
  3
ColorChange
350
3A
  3
Conceptual
350
34
  3
Dim
350
35
  3
Facepattern
350
39
  3
Flat
350
2B
  3
FlatWithEdges
350
2C
  3
Gouraud
350
2D
  3
GouraudWithEdges
350
2E
  3
Linepattern
350
38
  3
Realistic
350
33
  3
Thicken
350
37
  0
DICTIONARY
  5
30D
102
{ACAD_REACTORS
330
C
102
}
330
C
100
AcDbDictionary
281
     1
  3
DIMASSOC
350
310
  3
HIDETEXT
350
311
  0
LAYOUT
  5
1E
102
{ACAD_REACTORS
330
1A
102
}
330
1A
100
AcDbPlotSettings
  1

  2
none_device
  4

  6

 40
0.0
 41
0.0
 42
0.0
 43
0.0
 44
0.0
 45
0.0
 46
0.0
 47
0.0
 48
0.0
 49
0.0
140
0.0
141
0.0
142
1.0
143
1.0
 70
   688
 72
     0
 73
     0
 74
     5
  7

 75
    16
147
1.0
148
0.0
149
0.0
100
AcDbLayout
  1
Layout1
 70
     1
 71
     1
 10
0.0
 20
0.0
 11
12.0
 21
9.0
 12
0.0
 22
0.0
 32
0.0
 14
1.00000000000000E+20
 24
1.00000000000000E+20
 34
1.00000000000000E+20
 15
-1.00000000000000E+20
 25
-1.00000000000000E+20
 35
-1.00000000000000E+20
146
0.0
 13
0.0
 23
0.0
 33
0.0
 16
1.0
 26
0.0
 36
0.0
 17
0.0
 27
1.0
 37
0.0
 76
     0
330
1B
  0
LAYOUT
  5
26
102
{ACAD_REACTORS
330
1A
102
}
330
1A
100
AcDbPlotSettings
  1

  2
none_device
  4

  6

 40
0.0
 41
0.0
 42
0.0
 43
0.0
 44
0.0
 45
0.0
 46
0.0
 47
0.0
 48
0.0
 49
0.0
140
0.0
141
0.0
142
1.0
143
1.0
 70
   688
 72
     0
 73
     0
 74
     5
  7

 75
    16
147
1.0
148
0.0
149
0.0
100
AcDbLayout
  1
Layout2
 70
     1
 71
     2
 10
0.0
 20
0.0
 11
0.0
 21
0.0
 12
0.0
 22
0.0
 32
0.0
 14
0.0
 24
0.0
 34
0.0
 15
0.0
 25
0.0
 35
0.0
146
0.0
 13
0.0
 23
0.0
 33
0.0
 16
1.0
 26
0.0
 36
0.0
 17
0.0
 27
1.0
 37
0.0
 76
     0
330
23
  0
LAYOUT
  5
22
102
{ACAD_REACTORS
330
1A
102
}
330
1A
100
AcDbPlotSettings
  1

  2
none_device
  4

  6

 40
0.0
 41
0.0
 42
0.0
 43
0.0
 44
0.0
 45
0.0
 46
0.0
 47
0.0
 48
0.0
 49
0.0
140
0.0
141
0.0
142
1.0
143
1.0
 70
  1712
 72
     0
 73
     0
 74
     0
  7

 75
     0
147
1.0
148
0.0
149
0.0
100
AcDbLayout
  1
Model
 70
     1
 71
     0
 10
0.0
 20
0.0
 11
12.0
 21
9.0
 12
0.0
 22
0.0
 32
0.0
 14
804.5698245923899
 24
-606.089631968033
 34
0.0
 15
1014.56982459239
 25
-309.0896319680329
 35
0.0
146
0.0
 13
0.0
 23
0.0
 33
0.0
 16
1.0
 26
0.0
 36
0.0
 17
0.0
 27
1.0
 37
0.0
 76
     0
330
1F
331
29
  0
MATERIAL
  5
3D
102
{ACAD_REACTORS
330
3B
102
}
102
{ACAD_XDICTIONARY
360
334
102
}
330
3B
100
AcDbMaterial
  1
ByBlock
  0
MATERIAL
  5
3C
102
{ACAD_REACTORS
330
3B
102
}
102
{ACAD_XDICTIONARY
360
332
102
}
330
3B
100
AcDbMaterial
  1
ByLayer
  0
MATERIAL
  5
3E
102
{ACAD_REACTORS
330
3B
102
}
102
{ACAD_XDICTIONARY
360
336
102
}
330
3B
100
AcDbMaterial
  1
Global
  0
MLINESTYLE
  5
18
102
{ACAD_REACTORS
330
17
102
}
330
17
100
AcDbMlineStyle
  2
Standard
 70
     0
  3

 62
   256
 51
90.0
 52
90.0
 71
     2
 49
0.5
 62
   256
  6
BYLAYER
 49
-0.5
 62
   256
  6
BYLAYER
  0
ACDBPLACEHOLDER
  5
F
102
{ACAD_REACTORS
330
E
102
}
330
E
  0
VISUALSTYLE
  5
2F
102
{ACAD_REACTORS
330
2A
102
}
102
{ACAD_XDICTIONARY
360
31A
102
}
330
2A
100
AcDbVisualStyle
  2
2dWireframe
 70
     4
 71
     0
 72
     2
 73
     0
 90
        0
 40
-0.6
 41
-30.0
 62
     5
 63
     7
 74
     1
 91
        4
 64
     7
 65
   257
 75
     1
175
     1
 42
1.0
 92
        0
 66
   257
 43
1.0
 76
     1
 77
     6
 78
     2
 67
     7
 79
     5
170
     0
171
     0
290
     0
174
     0
 93
        1
 44
0.0
173
     0
291
     0
 45
0.0
1001
ACAD
1000
AcDbSavedByObjectVersion
1070
     0
  0
VISUALSTYLE
  5
31
102
{ACAD_REACTORS
330
2A
102
}
102
{ACAD_XDICTIONARY
360
31E
102
}
330
2A
100
AcDbVisualStyle
  2
3D Hidden
 70
     6
 71
     1
 72
     2
 73
     2
 90
        0
 40
-0.6
 41
-30.0
 62
     5
 63
     7
 74
     2
 91
        2
 64
     7
 65
   257
 75
     2
175
     1
 42
40.0
 92
        0
 66
   257
 43
1.0
 76
     1
 77
     6
 78
     2
 67
     7
 79
     3
170
     0
171
     0
290
     0
174
     0
 93
        1
 44
0.0
173
     0
291
     0
 45
0.0
1001
ACAD
1000
AcDbSavedByObjectVersion
1070
     0
  0
VISUALSTYLE
  5
30
102
{ACAD_REACTORS
330
2A
102
}
102
{ACAD_XDICTIONARY
360
31C
102
}
330
2A
100
AcDbVisualStyle
  2
3dWireframe
 70
     5
 71
     0
 72
     2
 73
     0
 90
        0
 40
-0.6
 41
-30.0
 62
     5
 63
     7
 74
     1
 91
        4
 64
     7
 65
   257
 75
     1
175
     1
 42
1.0
 92
        0
 66
   257
 43
1.0
 76
     1
 77
     6
 78
     2
 67
     7
 79
     5
170
     0
171
     0
290
     0
174
     0
 93
        1
 44
0.0
173
     0
291
     0
 45
0.0
1001
ACAD
1000
AcDbSavedByObjectVersion
1070
     0
  0
VISUALSTYLE
  5
32
102
{ACAD_REACTORS
330
2A
102
}
102
{ACAD_XDICTIONARY
360
320
102
}
330
2A
100
AcDbVisualStyle
  2
Basic
 70
     7
 71
     1
 72
     0
 73
     1
 90
        0
 40
-0.6
 41
-30.0
 62
     5
 63
     7
 74
     0
 91
        4
 64
     7
 65
   257
 75
     1
175
     1
 42
1.0
 92
        8
 66
     7
 43
1.0
 76
     1
 77
     6
 78
     2
 67
     7
 79
     5
170
     0
171
     0
290
     0
174
     0
 93
        1
 44
0.0
173
     0
291
     1
 45
0.0
1001
ACAD
1000
AcDbSavedByObjectVersion
1070
     0
  0
VISUALSTYLE
  5
36
102
{ACAD_REACTORS
330
2A
102
}
102
{ACAD_XDICTIONARY
360
328
102
}
330
2A
100
AcDbVisualStyle
  2
Brighten
 70
    12
 71
     2
 72
     2
 73
     0
 90
        0
 40
-0.6
 41
-30.0
 62
     5
 63
     7
 74
     1
 91
        4
 64
     7
 65
   257
 75
     1
175
     1
 42
1.0
 92
        8
 66
     7
 43
1.0
 76
     1
 77
     6
 78
     2
 67
     7
 79
     5
170
     0
171
     0
290
     0
174
     0
 93
        1
 44
50.0
173
     0
291
     1
 45
0.0
1001
ACAD
1000
AcDbSavedByObjectVersion
1070
     0
  0
VISUALSTYLE
  5
3A
102
{ACAD_REACTORS
330
2A
102
}
102
{ACAD_XDICTIONARY
360
330
102
}
330
2A
100
AcDbVisualStyle
  2
ColorChange
 70
    16
 71
     2
 72
     2
 73
     3
 90
        0
 40
-0.6
 41
-30.0
 62
     5
 63
     8
 74
     1
 91
        4
 64
     7
 65
   257
 75
     1
175
     1
 42
1.0
 92
        8
 66
     8
 43
1.0
 76
     1
 77
     6
 78
     2
 67
     7
 79
     5
170
     0
171
     0
290
     0
174
     0
 93
        1
 44
0.0
173
     0
291
     1
 45
0.0
1001
ACAD
1000
AcDbSavedByObjectVersion
1070
     0
  0
VISUALSTYLE
  5
34
102
{ACAD_REACTORS
330
2A
102
}
102
{ACAD_XDICTIONARY
360
324
102
}
330
2A
100
AcDbVisualStyle
  2
Conceptual
 70
     9
 71
     3
 72
     2
 73
     0
 90
        0
 40
-0.6
 41
-30.0
 62
     5
 63
     7
 74
     2
 91
        2
 64
     7
 65
   257
 75
     1
175
     1
 42
40.0
 92
        8
 66
     7
 43
1.0
 76
     1
 77
     6
 78
     2
 67
     7
 79
     3
170
     0
171
     0
290
     0
174
     0
 93
        1
 44
0.0
173
     0
291
     0
 45
0.0
1001
ACAD
1000
AcDbSavedByObjectVersion
1070
     0
  0
VISUALSTYLE
  5
35
102
{ACAD_REACTORS
330
2A
102
}
102
{ACAD_XDICTIONARY
360
326
102
}
330
2A
100
AcDbVisualStyle
  2
Dim
 70
    11
 71
     2
 72
     2
 73
     0
 90
        0
 40
-0.6
 41
-30.0
 62
     5
 63
     7
 74
     1
 91
        4
 64
     7
 65
   257
 75
     1
175
     1
 42
1.0
 92
        8
 66
     7
 43
1.0
 76
     1
 77
     6
 78
     2
 67
     7
 79
     5
170
     0
171
     0
290
     0
174
     0
 93
        1
 44
-50.0
173
     0
291
     1
 45
0.0
1001
ACAD
1000
AcDbSavedByObjectVersion
1070
     0
  0
VISUALSTYLE
  5
39
102
{ACAD_REACTORS
330
2A
102
}
102
{ACAD_XDICTIONARY
360
32E
102
}
330
2A
100
AcDbVisualStyle
  2
Facepattern
 70
    15
 71
     2
 72
     2
 73
     0
 90
        0
 40
-0.6
 41
-30.0
 62
     5
 63
     7
 74
     1
 91
        4
 64
     7
 65
   257
 75
     1
175
     1
 42
1.0
 92
        8
 66
     7
 43
1.0
 76
     1
 77
     6
 78
     2
 67
     7
 79
     5
170
     0
171
     0
290
     0
174
     0
 93
        1
 44
0.0
173
     0
291
     1
 45
0.0
1001
ACAD
1000
AcDbSavedByObjectVersion
1070
     0
  0
VISUALSTYLE
  5
2B
102
{ACAD_REACTORS
330
2A
102
}
102
{ACAD_XDICTIONARY
360
312
102
}
330
2A
100
AcDbVisualStyle
  2
Flat
 70
     0
 71
     2
 72
     1
 73
     1
 90
        2
 40
-0.6
 41
30.0
 62
     5
 63
     7
 74
     0
 91
        4
 64
     7
 65
   257
 75
     1
175
     1
 42
1.0
 92
        8
 66
     7
 43
1.0
 76
     1
 77
     6
 78
     2
 67
     7
 79
     5
170
     0
171
     0
290
     0
174
     0
 93
       13
 44
0.0
173
     0
291
     1
 45
0.0
1001
ACAD
1000
AcDbSavedByObjectVersion
1070
     0
  0
VISUALSTYLE
  5
2C
102
{ACAD_REACTORS
330
2A
102
}
102
{ACAD_XDICTIONARY
360
314
102
}
330
2A
100
AcDbVisualStyle
  2
FlatWithEdges
 70
     1
 71
     2
 72
     1
 73
     1
 90
        2
 40
-0.6
 41
30.0
 62
     5
 63
     7
 74
     1
 91
        4
 64
     7
 65
   257
 75
     1
175
     1
 42
1.0
 92
        0
 66
   257
 43
1.0
 76
     1
 77
     6
 78
     2
 67
     7
 79
     5
170
     0
171
     0
290
     0
174
     0
 93
       13
 44
0.0
173
     0
291
     1
 45
0.0
1001
ACAD
1000
AcDbSavedByObjectVersion
1070
     0
  0
VISUALSTYLE
  5
2D
102
{ACAD_REACTORS
330
2A
102
}
102
{ACAD_XDICTIONARY
360
316
102
}
330
2A
100
AcDbVisualStyle
  2
Gouraud
 70
     2
 71
     2
 72
     2
 73
     1
 90
        2
 40
-0.6
 41
30.0
 62
     5
 63
     7
 74
     0
 91
        4
 64
     7
 65
   257
 75
     1
175
     1
 42
1.0
 92
        0
 66
     7
 43
1.0
 76
     1
 77
     6
 78
     2
 67
     7
 79
     5
170
     0
171
     0
290
     0
174
     0
 93
       13
 44
0.0
173
     0
291
     1
 45
0.0
1001
ACAD
1000
AcDbSavedByObjectVersion
1070
     0
  0
VISUALSTYLE
  5
2E
102
{ACAD_REACTORS
330
2A
102
}
102
{ACAD_XDICTIONARY
360
318
102
}
330
2A
100
AcDbVisualStyle
  2
GouraudWithEdges
 70
     3
 71
     2
 72
     2
 73
     1
 90
        2
 40
-0.6
 41
30.0
 62
     5
 63
     7
 74
     1
 91
        4
 64
     7
 65
   257
 75
     1
175
     1
 42
1.0
 92
        0
 66
   257
 43
1.0
 76
     1
 77
     6
 78
     2
 67
     7
 79
     5
170
     0
171
     0
290
     0
174
     0
 93
       13
 44
0.0
173
     0
291
     1
 45
0.0
1001
ACAD
1000
AcDbSavedByObjectVersion
1070
     0
  0
VISUALSTYLE
  5
38
102
{ACAD_REACTORS
330
2A
102
}
102
{ACAD_XDICTIONARY
360
32C
102
}
330
2A
100
AcDbVisualStyle
  2
Linepattern
 70
    14
 71
     2
 72
     2
 73
     0
 90
        0
 40
-0.6
 41
-30.0
 62
     5
 63
     7
 74
     1
 91
        4
 64
     7
 65
   257
 75
     7
175
     7
 42
1.0
 92
        8
 66
     7
 43
1.0
 76
     1
 77
     6
 78
     2
 67
     7
 79
     5
170
     0
171
     0
290
     0
174
     0
 93
        1
 44
0.0
173
     0
291
     1
 45
0.0
1001
ACAD
1000
AcDbSavedByObjectVersion
1070
     0
  0
VISUALSTYLE
  5
33
102
{ACAD_REACTORS
330
2A
102
}
102
{ACAD_XDICTIONARY
360
322
102
}
330
2A
100
AcDbVisualStyle
  2
Realistic
 70
     8
 71
     2
 72
     2
 73
     0
 90
        0
 40
-0.6
 41
-30.0
 62
     5
 63
     7
 74
     1
 91
        0
 64
     7
 65
   257
 75
     1
175
     1
 42
1.0
 92
        8
 66
     8
 43
1.0
 76
     1
 77
     6
 78
     2
 67
     7
 79
     5
170
     0
171
     0
290
     0
174
     0
 93
       13
 44
0.0
173
     0
291
     0
 45
0.0
1001
ACAD
1000
AcDbSavedByObjectVersion
1070
     0
  0
VISUALSTYLE
  5
37
102
{ACAD_REACTORS
330
2A
102
}
102
{ACAD_XDICTIONARY
360
32A
102
}
330
2A
100
AcDbVisualStyle
  2
Thicken
 70
    13
 71
     2
 72
     2
 73
     0
 90
        0
 40
-0.6
 41
-30.0
 62
     5
 63
     7
 74
     1
 91
        4
 64
     7
 65
   257
 75
     1
175
     1
 42
1.0
 92
       12
 66
     7
 43
1.0
 76
     1
 77
     6
 78
     2
 67
     7
 79
     5
170
     0
171
     0
290
     0
174
     0
 93
        1
 44
0.0
173
     0
291
     1
 45
0.0
1001
ACAD
1000
AcDbSavedByObjectVersion
1070
     0
  0
DICTIONARYVAR
  5
310
102
{ACAD_REACTORS
330
30D
102
}
330
30D
100
DictionaryVariables
280
     0
  1
2
  0
DICTIONARYVAR
  5
311
102
{ACAD_REACTORS
330
30D
102
}
330
30D
100
DictionaryVariables
280
     0
  1
1
  0
DICTIONARY
  5
334
330
3D
100
AcDbDictionary
280
     1
281
     1
  3
ACAD_XREC_ROUNDTRIP
360
335
  0
DICTIONARY
  5
332
330
3C
100
AcDbDictionary
280
     1
281
     1
  3
ACAD_XREC_ROUNDTRIP
360
333
  0
DICTIONARY
  5
336
330
3E
100
AcDbDictionary
280
     1
281
     1
  3
ACAD_XREC_ROUNDTRIP
360
337
  0
DICTIONARY
  5
31A
330
2F
100
AcDbDictionary
280
     1
281
     1
  3
ACAD_XREC_ROUNDTRIP
360
31B
  0
DICTIONARY
  5
31E
330
31
100
AcDbDictionary
280
     1
281
     1
  3
ACAD_XREC_ROUNDTRIP
360
31F
  0
DICTIONARY
  5
31C
330
30
100
AcDbDictionary
280
     1
281
     1
  3
ACAD_XREC_ROUNDTRIP
360
31D
  0
DICTIONARY
  5
320
330
32
100
AcDbDictionary
280
     1
281
     1
  3
ACAD_XREC_ROUNDTRIP
360
321
  0
DICTIONARY
  5
328
330
36
100
AcDbDictionary
280
     1
281
     1
  3
ACAD_XREC_ROUNDTRIP
360
329
  0
DICTIONARY
  5
330
330
3A
100
AcDbDictionary
280
     1
281
     1
  3
ACAD_XREC_ROUNDTRIP
360
331
  0
DICTIONARY
  5
324
330
34
100
AcDbDictionary
280
     1
281
     1
  3
ACAD_XREC_ROUNDTRIP
360
325
  0
DICTIONARY
  5
326
330
35
100
AcDbDictionary
280
     1
281
     1
  3
ACAD_XREC_ROUNDTRIP
360
327
  0
DICTIONARY
  5
32E
330
39
100
AcDbDictionary
280
     1
281
     1
  3
ACAD_XREC_ROUNDTRIP
360
32F
  0
DICTIONARY
  5
312
330
2B
100
AcDbDictionary
280
     1
281
     1
  3
ACAD_XREC_ROUNDTRIP
360
313
  0
DICTIONARY
  5
314
330
2C
100
AcDbDictionary
280
     1
281
     1
  3
ACAD_XREC_ROUNDTRIP
360
315
  0
DICTIONARY
  5
316
330
2D
100
AcDbDictionary
280
     1
281
     1
  3
ACAD_XREC_ROUNDTRIP
360
317
  0
DICTIONARY
  5
318
330
2E
100
AcDbDictionary
280
     1
281
     1
  3
ACAD_XREC_ROUNDTRIP
360
319
  0
DICTIONARY
  5
32C
330
38
100
AcDbDictionary
280
     1
281
     1
  3
ACAD_XREC_ROUNDTRIP
360
32D
  0
DICTIONARY
  5
322
330
33
100
AcDbDictionary
280
     1
281
     1
  3
ACAD_XREC_ROUNDTRIP
360
323
  0
DICTIONARY
  5
32A
330
37
100
AcDbDictionary
280
     1
281
     1
  3
ACAD_XREC_ROUNDTRIP
360
32B
  0
XRECORD
  5
335
102
{ACAD_REACTORS
330
334
102
}
330
334
100
AcDbXrecord
280
     1
102
MATERIAL
148
0.0
149
0.0
149
0.0
 93
        0
 94
      127
282
     0
 72
     1
 77
     1
171
     1
175
     1
179
     1
273
     0
  0
XRECORD
  5
333
102
{ACAD_REACTORS
330
332
102
}
330
332
100
AcDbXrecord
280
     1
102
MATERIAL
148
0.0
149
0.0
149
0.0
 93
        0
 94
      127
282
     0
 72
     1
 77
     1
171
     1
175
     1
179
     1
273
     0
  0
XRECORD
  5
337
102
{ACAD_REACTORS
330
336
102
}
330
336
100
AcDbXrecord
280
     1
102
MATERIAL
148
0.0
149
0.0
149
0.0
 93
        0
 94
      127
282
     0
 72
     1
 77
     1
171
     1
175
     1
179
     1
273
     0
  0
XRECORD
  5
31B
102
{ACAD_REACTORS
330
31A
102
}
330
31A
100
AcDbXrecord
280
     1
102
RTVSPropertyOp0
 70
     1
102
RTVSPropertyOp1
 70
     1
102
RTVSPropertyOp2
 70
     1
102
RTVSPropertyOp3
 70
     1
102
RTVSPropertyOp4
 70
     1
102
RTVSPropertyOp5
 70
     1
102
RTVSPropertyOp6
 70
     1
102
RTVSPropertyOp7
 70
     1
102
RTVSPropertyOp8
 70
     1
102
RTVSPropertyOp9
 70
     1
102
RTVSPropertyOp10
 70
     1
102
RTVSPropertyOp11
 70
     1
102
RTVSPropertyOp12
 70
     1
102
RTVSPropertyOp13
 70
     1
102
RTVSPropertyOp14
 70
     1
102
RTVSPropertyOp15
 70
     1
102
RTVSPropertyOp16
 70
     1
102
RTVSPropertyOp17
 70
     1
102
RTVSPropertyOp18
 70
     1
102
RTVSPropertyOp19
 70
     1
102
RTVSPropertyOp20
 70
     1
102
RTVSPropertyOp21
 70
     1
102
RTVSPropertyOp22
 70
     1
102
RTVSPropertyOp23
 70
     1
102
RTVSPropertyOp24
 70
     1
102
RTVSPropertyOp25
 70
     1
102
RTVSPropertyOp26
 70
     1
102
RTVSPropertyOp27
 70
     1
102
RTVSPropertyOp28
 70
     1
102
RTVSPropertyOp29
 70
     1
102
RTVSPropertyOp30
 70
     1
102
RTVSPropertyOp31
 70
     1
102
RTVSPropertyOp32
 70
     1
  0
XRECORD
  5
31F
102
{ACAD_REACTORS
330
31E
102
}
330
31E
100
AcDbXrecord
280
     1
102
RTVSPropertyOp0
 70
     1
102
RTVSPropertyOp1
 70
     1
102
RTVSPropertyOp2
 70
     1
102
RTVSPropertyOp3
 70
     1
102
RTVSPropertyOp4
 70
     1
102
RTVSPropertyOp5
 70
     1
102
RTVSPropertyOp6
 70
     1
102
RTVSPropertyOp7
 70
     1
102
RTVSPropertyOp8
 70
     1
102
RTVSPropertyOp9
 70
     1
102
RTVSPropertyOp10
 70
     1
102
RTVSPropertyOp11
 70
     1
102
RTVSPropertyOp12
 70
     1
102
RTVSPropertyOp13
 70
     1
102
RTVSPropertyOp14
 70
     1
102
RTVSPropertyOp15
 70
     1
102
RTVSPropertyOp16
 70
     1
102
RTVSPropertyOp17
 70
     1
102
RTVSPropertyOp18
 70
     1
102
RTVSPropertyOp19
 70
     1
102
RTVSPropertyOp20
 70
     1
102
RTVSPropertyOp21
 70
     1
102
RTVSPropertyOp22
 70
     1
102
RTVSPropertyOp23
 70
     1
102
RTVSPropertyOp24
 70
     1
102
RTVSPropertyOp25
 70
     1
102
RTVSPropertyOp26
 70
     1
102
RTVSPropertyOp27
 70
     1
102
RTVSPropertyOp28
 70
     1
102
RTVSPropertyOp29
 70
     1
102
RTVSPropertyOp30
 70
     1
102
RTVSPropertyOp31
 70
     1
102
RTVSPropertyOp32
 70
     1
  0
XRECORD
  5
31D
102
{ACAD_REACTORS
330
31C
102
}
330
31C
100
AcDbXrecord
280
     1
102
RTVSPropertyOp0
 70
     1
102
RTVSPropertyOp1
 70
     1
102
RTVSPropertyOp2
 70
     1
102
RTVSPropertyOp3
 70
     1
102
RTVSPropertyOp4
 70
     1
102
RTVSPropertyOp5
 70
     1
102
RTVSPropertyOp6
 70
     1
102
RTVSPropertyOp7
 70
     1
102
RTVSPropertyOp8
 70
     1
102
RTVSPropertyOp9
 70
     1
102
RTVSPropertyOp10
 70
     1
102
RTVSPropertyOp11
 70
     1
102
RTVSPropertyOp12
 70
     1
102
RTVSPropertyOp13
 70
     1
102
RTVSPropertyOp14
 70
     1
102
RTVSPropertyOp15
 70
     1
102
RTVSPropertyOp16
 70
     1
102
RTVSPropertyOp17
 70
     1
102
RTVSPropertyOp18
 70
     1
102
RTVSPropertyOp19
 70
     1
102
RTVSPropertyOp20
 70
     1
102
RTVSPropertyOp21
 70
     1
102
RTVSPropertyOp22
 70
     1
102
RTVSPropertyOp23
 70
     1
102
RTVSPropertyOp24
 70
     1
102
RTVSPropertyOp25
 70
     1
102
RTVSPropertyOp26
 70
     1
102
RTVSPropertyOp27
 70
     1
102
RTVSPropertyOp28
 70
     1
102
RTVSPropertyOp29
 70
     1
102
RTVSPropertyOp30
 70
     1
102
RTVSPropertyOp31
 70
     1
102
RTVSPropertyOp32
 70
     1
  0
XRECORD
  5
321
102
{ACAD_REACTORS
330
320
102
}
330
320
100
AcDbXrecord
280
     1
102
RTVSPropertyOp0
 70
     1
102
RTVSPropertyOp1
 70
     1
102
RTVSPropertyOp2
 70
     1
102
RTVSPropertyOp3
 70
     1
102
RTVSPropertyOp4
 70
     1
102
RTVSPropertyOp5
 70
     1
102
RTVSPropertyOp6
 70
     1
102
RTVSPropertyOp7
 70
     1
102
RTVSPropertyOp8
 70
     1
102
RTVSPropertyOp9
 70
     1
102
RTVSPropertyOp10
 70
     1
102
RTVSPropertyOp11
 70
     1
102
RTVSPropertyOp12
 70
     1
102
RTVSPropertyOp13
 70
     1
102
RTVSPropertyOp14
 70
     1
102
RTVSPropertyOp15
 70
     1
102
RTVSPropertyOp16
 70
     1
102
RTVSPropertyOp17
 70
     1
102
RTVSPropertyOp18
 70
     1
102
RTVSPropertyOp19
 70
     1
102
RTVSPropertyOp20
 70
     1
102
RTVSPropertyOp21
 70
     1
102
RTVSPropertyOp22
 70
     1
102
RTVSPropertyOp23
 70
     1
102
RTVSPropertyOp24
 70
     1
102
RTVSPropertyOp25
 70
     1
102
RTVSPropertyOp26
 70
     1
102
RTVSPropertyOp27
 70
     1
102
RTVSPropertyOp28
 70
     1
102
RTVSPropertyOp29
 70
     1
102
RTVSPropertyOp30
 70
     1
102
RTVSPropertyOp31
 70
     1
102
RTVSPropertyOp32
 70
     1
  0
XRECORD
  5
329
102
{ACAD_REACTORS
330
328
102
}
330
328
100
AcDbXrecord
280
     1
102
RTVSPropertyOp0
 70
     1
102
RTVSPropertyOp1
 70
     1
102
RTVSPropertyOp2
 70
     1
102
RTVSPropertyOp3
 70
     1
102
RTVSPropertyOp4
 70
     1
102
RTVSPropertyOp5
 70
     1
102
RTVSPropertyOp6
 70
     1
102
RTVSPropertyOp7
 70
     1
102
RTVSPropertyOp8
 70
     1
102
RTVSPropertyOp9
 70
     1
102
RTVSPropertyOp10
 70
     1
102
RTVSPropertyOp11
 70
     1
102
RTVSPropertyOp12
 70
     1
102
RTVSPropertyOp13
 70
     1
102
RTVSPropertyOp14
 70
     1
102
RTVSPropertyOp15
 70
     1
102
RTVSPropertyOp16
 70
     1
102
RTVSPropertyOp17
 70
     1
102
RTVSPropertyOp18
 70
     1
102
RTVSPropertyOp19
 70
     1
102
RTVSPropertyOp20
 70
     1
102
RTVSPropertyOp21
 70
     1
102
RTVSPropertyOp22
 70
     1
102
RTVSPropertyOp23
 70
     1
102
RTVSPropertyOp24
 70
     1
102
RTVSPropertyOp25
 70
     1
102
RTVSPropertyOp26
 70
     1
102
RTVSPropertyOp27
 70
     1
102
RTVSPropertyOp28
 70
     1
102
RTVSPropertyOp29
 70
     1
102
RTVSPropertyOp30
 70
     1
102
RTVSPropertyOp31
 70
     1
102
RTVSPropertyOp32
 70
     1
  0
XRECORD
  5
331
102
{ACAD_REACTORS
330
330
102
}
330
330
100
AcDbXrecord
280
     1
102
RTVSPropertyOp0
 70
     1
102
RTVSPropertyOp1
 70
     1
102
RTVSPropertyOp2
 70
     1
102
RTVSPropertyOp3
 70
     1
102
RTVSPropertyOp4
 70
     1
102
RTVSPropertyOp5
 70
     1
102
RTVSPropertyOp6
 70
     1
102
RTVSPropertyOp7
 70
     1
102
RTVSPropertyOp8
 70
     1
102
RTVSPropertyOp9
 70
     1
102
RTVSPropertyOp10
 70
     1
102
RTVSPropertyOp11
 70
     1
102
RTVSPropertyOp12
 70
     1
102
RTVSPropertyOp13
 70
     1
102
RTVSPropertyOp14
 70
     1
102
RTVSPropertyOp15
 70
     1
102
RTVSPropertyOp16
 70
     1
102
RTVSPropertyOp17
 70
     1
102
RTVSPropertyOp18
 70
     1
102
RTVSPropertyOp19
 70
     1
102
RTVSPropertyOp20
 70
     1
102
RTVSPropertyOp21
 70
     1
102
RTVSPropertyOp22
 70
     1
102
RTVSPropertyOp23
 70
     1
102
RTVSPropertyOp24
 70
     1
102
RTVSPropertyOp25
 70
     1
102
RTVSPropertyOp26
 70
     1
102
RTVSPropertyOp27
 70
     1
102
RTVSPropertyOp28
 70
     1
102
RTVSPropertyOp29
 70
     1
102
RTVSPropertyOp30
 70
     1
102
RTVSPropertyOp31
 70
     1
102
RTVSPropertyOp32
 70
     1
  0
XRECORD
  5
325
102
{ACAD_REACTORS
330
324
102
}
330
324
100
AcDbXrecord
280
     1
102
RTVSPropertyOp0
 70
     1
102
RTVSPropertyOp1
 70
     1
102
RTVSPropertyOp2
 70
     1
102
RTVSPropertyOp3
 70
     1
102
RTVSPropertyOp4
 70
     1
102
RTVSPropertyOp5
 70
     1
102
RTVSPropertyOp6
 70
     1
102
RTVSPropertyOp7
 70
     1
102
RTVSPropertyOp8
 70
     1
102
RTVSPropertyOp9
 70
     1
102
RTVSPropertyOp10
 70
     1
102
RTVSPropertyOp11
 70
     1
102
RTVSPropertyOp12
 70
     1
102
RTVSPropertyOp13
 70
     1
102
RTVSPropertyOp14
 70
     1
102
RTVSPropertyOp15
 70
     1
102
RTVSPropertyOp16
 70
     1
102
RTVSPropertyOp17
 70
     1
102
RTVSPropertyOp18
 70
     1
102
RTVSPropertyOp19
 70
     1
102
RTVSPropertyOp20
 70
     1
102
RTVSPropertyOp21
 70
     1
102
RTVSPropertyOp22
 70
     1
102
RTVSPropertyOp23
 70
     1
102
RTVSPropertyOp24
 70
     1
102
RTVSPropertyOp25
 70
     1
102
RTVSPropertyOp26
 70
     1
102
RTVSPropertyOp27
 70
     1
102
RTVSPropertyOp28
 70
     1
102
RTVSPropertyOp29
 70
     1
102
RTVSPropertyOp30
 70
     1
102
RTVSPropertyOp31
 70
     1
102
RTVSPropertyOp32
 70
     1
  0
XRECORD
  5
327
102
{ACAD_REACTORS
330
326
102
}
330
326
100
AcDbXrecord
280
     1
102
RTVSPropertyOp0
 70
     1
102
RTVSPropertyOp1
 70
     1
102
RTVSPropertyOp2
 70
     1
102
RTVSPropertyOp3
 70
     1
102
RTVSPropertyOp4
 70
     1
102
RTVSPropertyOp5
 70
     1
102
RTVSPropertyOp6
 70
     1
102
RTVSPropertyOp7
 70
     1
102
RTVSPropertyOp8
 70
     1
102
RTVSPropertyOp9
 70
     1
102
RTVSPropertyOp10
 70
     1
102
RTVSPropertyOp11
 70
     1
102
RTVSPropertyOp12
 70
     1
102
RTVSPropertyOp13
 70
     1
102
RTVSPropertyOp14
 70
     1
102
RTVSPropertyOp15
 70
     1
102
RTVSPropertyOp16
 70
     1
102
RTVSPropertyOp17
 70
     1
102
RTVSPropertyOp18
 70
     1
102
RTVSPropertyOp19
 70
     1
102
RTVSPropertyOp20
 70
     1
102
RTVSPropertyOp21
 70
     1
102
RTVSPropertyOp22
 70
     1
102
RTVSPropertyOp23
 70
     1
102
RTVSPropertyOp24
 70
     1
102
RTVSPropertyOp25
 70
     1
102
RTVSPropertyOp26
 70
     1
102
RTVSPropertyOp27
 70
     1
102
RTVSPropertyOp28
 70
     1
102
RTVSPropertyOp29
 70
     1
102
RTVSPropertyOp30
 70
     1
102
RTVSPropertyOp31
 70
     1
102
RTVSPropertyOp32
 70
     1
  0
XRECORD
  5
32F
102
{ACAD_REACTORS
330
32E
102
}
330
32E
100
AcDbXrecord
280
     1
102
RTVSPropertyOp0
 70
     1
102
RTVSPropertyOp1
 70
     1
102
RTVSPropertyOp2
 70
     1
102
RTVSPropertyOp3
 70
     1
102
RTVSPropertyOp4
 70
     1
102
RTVSPropertyOp5
 70
     1
102
RTVSPropertyOp6
 70
     1
102
RTVSPropertyOp7
 70
     1
102
RTVSPropertyOp8
 70
     1
102
RTVSPropertyOp9
 70
     1
102
RTVSPropertyOp10
 70
     1
102
RTVSPropertyOp11
 70
     1
102
RTVSPropertyOp12
 70
     1
102
RTVSPropertyOp13
 70
     1
102
RTVSPropertyOp14
 70
     1
102
RTVSPropertyOp15
 70
     1
102
RTVSPropertyOp16
 70
     1
102
RTVSPropertyOp17
 70
     1
102
RTVSPropertyOp18
 70
     1
102
RTVSPropertyOp19
 70
     1
102
RTVSPropertyOp20
 70
     1
102
RTVSPropertyOp21
 70
     1
102
RTVSPropertyOp22
 70
     1
102
RTVSPropertyOp23
 70
     1
102
RTVSPropertyOp24
 70
     1
102
RTVSPropertyOp25
 70
     1
102
RTVSPropertyOp26
 70
     1
102
RTVSPropertyOp27
 70
     1
102
RTVSPropertyOp28
 70
     1
102
RTVSPropertyOp29
 70
     1
102
RTVSPropertyOp30
 70
     1
102
RTVSPropertyOp31
 70
     1
102
RTVSPropertyOp32
 70
     1
  0
XRECORD
  5
313
102
{ACAD_REACTORS
330
312
102
}
330
312
100
AcDbXrecord
280
     1
102
RTVSPropertyOp0
 70
     1
102
RTVSPropertyOp1
 70
     1
102
RTVSPropertyOp2
 70
     1
102
RTVSPropertyOp3
 70
     1
102
RTVSPropertyOp4
 70
     1
102
RTVSPropertyOp5
 70
     1
102
RTVSPropertyOp6
 70
     1
102
RTVSPropertyOp7
 70
     1
102
RTVSPropertyOp8
 70
     1
102
RTVSPropertyOp9
 70
     1
102
RTVSPropertyOp10
 70
     1
102
RTVSPropertyOp11
 70
     1
102
RTVSPropertyOp12
 70
     1
102
RTVSPropertyOp13
 70
     1
102
RTVSPropertyOp14
 70
     1
102
RTVSPropertyOp15
 70
     1
102
RTVSPropertyOp16
 70
     1
102
RTVSPropertyOp17
 70
     1
102
RTVSPropertyOp18
 70
     1
102
RTVSPropertyOp19
 70
     1
102
RTVSPropertyOp20
 70
     1
102
RTVSPropertyOp21
 70
     1
102
RTVSPropertyOp22
 70
     1
102
RTVSPropertyOp23
 70
     1
102
RTVSPropertyOp24
 70
     1
102
RTVSPropertyOp25
 70
     1
102
RTVSPropertyOp26
 70
     1
102
RTVSPropertyOp27
 70
     1
102
RTVSPropertyOp28
 70
     1
102
RTVSPropertyOp29
 70
     1
102
RTVSPropertyOp30
 70
     1
102
RTVSPropertyOp31
 70
     1
102
RTVSPropertyOp32
 70
     1
  0
XRECORD
  5
315
102
{ACAD_REACTORS
330
314
102
}
330
314
100
AcDbXrecord
280
     1
102
RTVSPropertyOp0
 70
     1
102
RTVSPropertyOp1
 70
     1
102
RTVSPropertyOp2
 70
     1
102
RTVSPropertyOp3
 70
     1
102
RTVSPropertyOp4
 70
     1
102
RTVSPropertyOp5
 70
     1
102
RTVSPropertyOp6
 70
     1
102
RTVSPropertyOp7
 70
     1
102
RTVSPropertyOp8
 70
     1
102
RTVSPropertyOp9
 70
     1
102
RTVSPropertyOp10
 70
     1
102
RTVSPropertyOp11
 70
     1
102
RTVSPropertyOp12
 70
     1
102
RTVSPropertyOp13
 70
     1
102
RTVSPropertyOp14
 70
     1
102
RTVSPropertyOp15
 70
     1
102
RTVSPropertyOp16
 70
     1
102
RTVSPropertyOp17
 70
     1
102
RTVSPropertyOp18
 70
     1
102
RTVSPropertyOp19
 70
     1
102
RTVSPropertyOp20
 70
     1
102
RTVSPropertyOp21
 70
     1
102
RTVSPropertyOp22
 70
     1
102
RTVSPropertyOp23
 70
     1
102
RTVSPropertyOp24
 70
     1
102
RTVSPropertyOp25
 70
     1
102
RTVSPropertyOp26
 70
     1
102
RTVSPropertyOp27
 70
     1
102
RTVSPropertyOp28
 70
     1
102
RTVSPropertyOp29
 70
     1
102
RTVSPropertyOp30
 70
     1
102
RTVSPropertyOp31
 70
     1
102
RTVSPropertyOp32
 70
     1
  0
XRECORD
  5
317
102
{ACAD_REACTORS
330
316
102
}
330
316
100
AcDbXrecord
280
     1
102
RTVSPropertyOp0
 70
     1
102
RTVSPropertyOp1
 70
     1
102
RTVSPropertyOp2
 70
     1
102
RTVSPropertyOp3
 70
     1
102
RTVSPropertyOp4
 70
     1
102
RTVSPropertyOp5
 70
     1
102
RTVSPropertyOp6
 70
     1
102
RTVSPropertyOp7
 70
     1
102
RTVSPropertyOp8
 70
     1
102
RTVSPropertyOp9
 70
     1
102
RTVSPropertyOp10
 70
     1
102
RTVSPropertyOp11
 70
     1
102
RTVSPropertyOp12
 70
     1
102
RTVSPropertyOp13
 70
     1
102
RTVSPropertyOp14
 70
     1
102
RTVSPropertyOp15
 70
     1
102
RTVSPropertyOp16
 70
     1
102
RTVSPropertyOp17
 70
     1
102
RTVSPropertyOp18
 70
     1
102
RTVSPropertyOp19
 70
     1
102
RTVSPropertyOp20
 70
     1
102
RTVSPropertyOp21
 70
     1
102
RTVSPropertyOp22
 70
     1
102
RTVSPropertyOp23
 70
     1
102
RTVSPropertyOp24
 70
     1
102
RTVSPropertyOp25
 70
     1
102
RTVSPropertyOp26
 70
     1
102
RTVSPropertyOp27
 70
     1
102
RTVSPropertyOp28
 70
     1
102
RTVSPropertyOp29
 70
     1
102
RTVSPropertyOp30
 70
     1
102
RTVSPropertyOp31
 70
     1
102
RTVSPropertyOp32
 70
     1
  0
XRECORD
  5
319
102
{ACAD_REACTORS
330
318
102
}
330
318
100
AcDbXrecord
280
     1
102
RTVSPropertyOp0
 70
     1
102
RTVSPropertyOp1
 70
     1
102
RTVSPropertyOp2
 70
     1
102
RTVSPropertyOp3
 70
     1
102
RTVSPropertyOp4
 70
     1
102
RTVSPropertyOp5
 70
     1
102
RTVSPropertyOp6
 70
     1
102
RTVSPropertyOp7
 70
     1
102
RTVSPropertyOp8
 70
     1
102
RTVSPropertyOp9
 70
     1
102
RTVSPropertyOp10
 70
     1
102
RTVSPropertyOp11
 70
     1
102
RTVSPropertyOp12
 70
     1
102
RTVSPropertyOp13
 70
     1
102
RTVSPropertyOp14
 70
     1
102
RTVSPropertyOp15
 70
     1
102
RTVSPropertyOp16
 70
     1
102
RTVSPropertyOp17
 70
     1
102
RTVSPropertyOp18
 70
     1
102
RTVSPropertyOp19
 70
     1
102
RTVSPropertyOp20
 70
     1
102
RTVSPropertyOp21
 70
     1
102
RTVSPropertyOp22
 70
     1
102
RTVSPropertyOp23
 70
     1
102
RTVSPropertyOp24
 70
     1
102
RTVSPropertyOp25
 70
     1
102
RTVSPropertyOp26
 70
     1
102
RTVSPropertyOp27
 70
     1
102
RTVSPropertyOp28
 70
     1
102
RTVSPropertyOp29
 70
     1
102
RTVSPropertyOp30
 70
     1
102
RTVSPropertyOp31
 70
     1
102
RTVSPropertyOp32
 70
     1
  0
XRECORD
  5
32D
102
{ACAD_REACTORS
330
32C
102
}
330
32C
100
AcDbXrecord
280
     1
102
RTVSPropertyOp0
 70
     1
102
RTVSPropertyOp1
 70
     1
102
RTVSPropertyOp2
 70
     1
102
RTVSPropertyOp3
 70
     1
102
RTVSPropertyOp4
 70
     1
102
RTVSPropertyOp5
 70
     1
102
RTVSPropertyOp6
 70
     1
102
RTVSPropertyOp7
 70
     1
102
RTVSPropertyOp8
 70
     1
102
RTVSPropertyOp9
 70
     1
102
RTVSPropertyOp10
 70
     1
102
RTVSPropertyOp11
 70
     1
102
RTVSPropertyOp12
 70
     1
102
RTVSPropertyOp13
 70
     1
102
RTVSPropertyOp14
 70
     1
102
RTVSPropertyOp15
 70
     1
102
RTVSPropertyOp16
 70
     1
102
RTVSPropertyOp17
 70
     1
102
RTVSPropertyOp18
 70
     1
102
RTVSPropertyOp19
 70
     1
102
RTVSPropertyOp20
 70
     1
102
RTVSPropertyOp21
 70
     1
102
RTVSPropertyOp22
 70
     1
102
RTVSPropertyOp23
 70
     1
102
RTVSPropertyOp24
 70
     1
102
RTVSPropertyOp25
 70
     1
102
RTVSPropertyOp26
 70
     1
102
RTVSPropertyOp27
 70
     1
102
RTVSPropertyOp28
 70
     1
102
RTVSPropertyOp29
 70
     1
102
RTVSPropertyOp30
 70
     1
102
RTVSPropertyOp31
 70
     1
102
RTVSPropertyOp32
 70
     1
  0
XRECORD
  5
323
102
{ACAD_REACTORS
330
322
102
}
330
322
100
AcDbXrecord
280
     1
102
RTVSPropertyOp0
 70
     1
102
RTVSPropertyOp1
 70
     1
102
RTVSPropertyOp2
 70
     1
102
RTVSPropertyOp3
 70
     1
102
RTVSPropertyOp4
 70
     1
102
RTVSPropertyOp5
 70
     1
102
RTVSPropertyOp6
 70
     1
102
RTVSPropertyOp7
 70
     1
102
RTVSPropertyOp8
 70
     1
102
RTVSPropertyOp9
 70
     1
102
RTVSPropertyOp10
 70
     1
102
RTVSPropertyOp11
 70
     1
102
RTVSPropertyOp12
 70
     1
102
RTVSPropertyOp13
 70
     1
102
RTVSPropertyOp14
 70
     1
102
RTVSPropertyOp15
 70
     1
102
RTVSPropertyOp16
 70
     1
102
RTVSPropertyOp17
 70
     1
102
RTVSPropertyOp18
 70
     1
102
RTVSPropertyOp19
 70
     1
102
RTVSPropertyOp20
 70
     1
102
RTVSPropertyOp21
 70
     1
102
RTVSPropertyOp22
 70
     1
102
RTVSPropertyOp23
 70
     1
102
RTVSPropertyOp24
 70
     1
102
RTVSPropertyOp25
 70
     1
102
RTVSPropertyOp26
 70
     1
102
RTVSPropertyOp27
 70
     1
102
RTVSPropertyOp28
 70
     1
102
RTVSPropertyOp29
 70
     1
102
RTVSPropertyOp30
 70
     1
102
RTVSPropertyOp31
 70
     1
102
RTVSPropertyOp32
 70
     1
  0
XRECORD
  5
32B
102
{ACAD_REACTORS
330
32A
102
}
330
32A
100
AcDbXrecord
280
     1
102
RTVSPropertyOp0
 70
     1
102
RTVSPropertyOp1
 70
     1
102
RTVSPropertyOp2
 70
     1
102
RTVSPropertyOp3
 70
     1
102
RTVSPropertyOp4
 70
     1
102
RTVSPropertyOp5
 70
     1
102
RTVSPropertyOp6
 70
     1
102
RTVSPropertyOp7
 70
     1
102
RTVSPropertyOp8
 70
     1
102
RTVSPropertyOp9
 70
     1
102
RTVSPropertyOp10
 70
     1
102
RTVSPropertyOp11
 70
     1
102
RTVSPropertyOp12
 70
     1
102
RTVSPropertyOp13
 70
     1
102
RTVSPropertyOp14
 70
     1
102
RTVSPropertyOp15
 70
     1
102
RTVSPropertyOp16
 70
     1
102
RTVSPropertyOp17
 70
     1
102
RTVSPropertyOp18
 70
     1
102
RTVSPropertyOp19
 70
     1
102
RTVSPropertyOp20
 70
     1
102
RTVSPropertyOp21
 70
     1
102
RTVSPropertyOp22
 70
     1
102
RTVSPropertyOp23
 70
     1
102
RTVSPropertyOp24
 70
     1
102
RTVSPropertyOp25
 70
     1
102
RTVSPropertyOp26
 70
     1
102
RTVSPropertyOp27
 70
     1
102
RTVSPropertyOp28
 70
     1
102
RTVSPropertyOp29
 70
     1
102
RTVSPropertyOp30
 70
     1
102
RTVSPropertyOp31
 70
     1
102
RTVSPropertyOp32
 70
     1
  0
ENDSEC
  0
EOF
